<?xml version="1.0" standalone="no"?>
<!DOCTYPE svg PUBLIC "-//W3C//DTD SVG 1.1//EN" "http://www.w3.org/Graphics/SVG/1.1/DTD/svg11.dtd" >
<svg xmlns="http://www.w3.org/2000/svg">
<metadata>Generated by IcoMoon</metadata>
<defs>
<font id="icomoon" horiz-adv-x="1024">
<font-face units-per-em="1024" ascent="960" descent="-64" />
<missing-glyph horiz-adv-x="1024" />
<glyph unicode="&#x20;" horiz-adv-x="512" d="" />
<glyph unicode="&#xe900;" glyph-name="container-triangle" horiz-adv-x="532" d="M20.542 939.52v-40.96h112.64l304.599-404.959c0.578-0.766 1.204-1.487 1.88-2.163 22.491-22.487 23.908-58.065 4.239-82.199l-4.239-4.678-1.88-2.163-304.599-404.959h-112.64v-40.96h122.88c6.432 0 12.491 3.023 16.36 8.159l310.361 412.639c37.884 39.567 37.896 101.925 0 141.48l-310.361 412.602-3.28 3.44c-3.638 3.019-8.254 4.72-13.080 4.72h-122.88z" />
<glyph unicode="&#xe901;" d="M224.791 543.996c-0.055 37.935 7.399 75.51 21.93 110.553 14.531 35.045 35.852 66.867 62.727 93.637 26.883 26.769 58.797 47.957 93.898 62.342 35.109 14.383 72.711 21.68 110.65 21.469 158.396-1.201 285.193-132.801 285.193-291.6v-28.401c0-143.202 29.999-226.402 56.401-272 2.803-4.855 4.288-10.364 4.288-15.974 0.009-5.606-1.463-11.115-4.258-15.974-2.799-4.864-6.822-8.905-11.665-11.725-4.851-2.816-10.359-4.305-15.962-4.326h-631.999c-5.609 0.021-11.117 1.51-15.961 4.326-4.852 2.82-8.875 6.861-11.672 11.725-2.797 4.86-4.265 10.368-4.258 15.974 0.008 5.611 1.484 11.119 4.289 15.974 26.398 45.598 56.398 128.798 56.398 272v32z" />
<glyph unicode="&#xe902;" d="M192.791 511.996v32.001c0 0-0.090 63.817 24.369 122.809 0 0 24.459 58.993 69.71 104.056 0 0 45.251 45.063 104.345 69.277 0 0 59.093 24.213 122.953 23.858 0 0 64.939-0.492 124.066-26.433 0 0 56.892-24.958 100.685-69.945 0 0 43.627-44.811 67.55-102.592 0 0 24.721-59.707 24.721-124.629v-28.401c0 0 0.004-165.986 52.096-255.966 0 0 8.58-14.857 8.593-31.979 0 0 0.017-17.118-8.516-31.957 0 0-8.533-14.839-23.339-23.437 0 0-14.801-8.602-31.919-8.661h-632.113c0 0-17.231 0.060-32.034 8.661 0 0-14.802 8.597-23.336 23.437 0 0-8.533 14.839-8.518 31.957 0 0 0.015 17.122 8.575 31.945 0 0 52.113 90.014 52.113 256zM256.791 511.996c0 0 0-183.177-60.687-288h631.774c0 0-60.689 104.853-60.689 288v28.401c0 0 0 106.434-74.125 182.578 0 0-74.21 76.227-179.251 77.022 0 0-51.072 0.284-98.333-19.080 0 0-47.26-19.365-83.45-55.404 0 0-36.189-36.039-55.75-83.219 0 0-19.561-47.179-19.489-98.298v-32.001z" />
<glyph unicode="&#xe903;" d="M672 160v32c0 17.673-14.327 32-32 32s-32-14.327-32-32v-32c0-39.765-28.117-67.883-28.117-67.883-28.117-28.117-67.883-28.117-67.883-28.117-39.765 0-67.883 28.117-67.883 28.117-28.117 28.117-28.117 67.883-28.117 67.883v32c0 17.673-14.327 32-32 32s-32-14.327-32-32v-32c0-66.274 46.863-113.135 46.863-113.135 46.863-46.865 113.137-46.865 113.137-46.865 66.274 0 113.135 46.861 113.135 46.861 46.865 46.865 46.865 113.139 46.865 113.139z" />
<glyph unicode="&#xe904;" d="M192 96c-0.053 12.617 2.394 25.126 7.201 36.796 4.805 11.674 11.875 22.281 20.799 31.206 8.926 8.922 19.529 15.991 31.201 20.796 11.67 4.804 24.177 7.258 36.799 7.202h544v640h-544c-12.621 0.055-25.129-2.398-36.799-7.203-11.672-4.805-22.275-11.875-31.201-20.797-8.924-8.922-15.994-19.531-20.799-31.203-4.807-11.672-7.254-24.18-7.201-36.797v-640z" />
<glyph unicode="&#xe905;" d="M160.001 735.936c0 0-0.093 25.482 9.61 49.047 0 0 9.716 23.598 27.762 41.644 0 0 18.046 18.045 41.644 27.762 0 0 23.598 9.716 48.984 9.61h543.999c17.673 0 32-14.327 32-32v-639.999c0-17.673-14.327-32-32-32h-544.133c0 0-12.72 0.051-24.482-4.791 0 0-11.762-4.843-20.756-13.837 0 0-8.995-8.994-13.838-20.757 0 0-4.727-11.477-4.79-23.868v-0.747c0-17.673-14.327-32-32-32-17.621 0-31.926 14.242-32 31.863v640.073zM224.001 735.999v-528.954c0 0 7.204 4.126 15.016 7.343 0 0 23.598 9.719 49.118 9.613h511.865v575.999h-511.999c0 0-12.854 0.054-24.616-4.789 0 0-11.762-4.843-20.756-13.838 0 0-8.995-8.995-13.838-20.756 0 0-4.844-11.762-4.79-24.482v-0.134z" />
<glyph unicode="&#xe906;" d="M192 32h576c17.673 0 32 14.327 32 32s-14.327 32-32 32h-544c0 17.673-14.327 32-32 32s-32-14.327-32-32v-32c0-17.673 14.327-32 32-32z" />
<glyph unicode="&#xe907;" glyph-name="Calendar-Blank" d="M160 576h704c17.673 0 32 14.327 32 32s-14.327 32-32 32h-704c-17.673 0-32-14.327-32-32s14.327-32 32-32zM128 768c0 0 0 26.51 18.745 45.255 0 0 18.745 18.745 45.255 18.745h640c0 0 26.509 0 45.257-18.745 0 0 18.743-18.745 18.743-45.255v-640c0 0 0-26.509-18.743-45.257 0 0-18.748-18.743-45.257-18.743h-640c0 0-26.51 0-45.255 18.743 0 0-18.745 18.748-18.745 45.257v640zM192 768v-640h640v640h-640zM672 864v-128c0-17.673 14.327-32 32-32s32 14.327 32 32v128c0 17.673-14.327 32-32 32s-32-14.327-32-32zM672 480c0-17.673 14.327-32 32-32s32 14.327 32 32c0 17.673-14.327 32-32 32s-32-14.327-32-32zM672 352c0-17.673 14.327-32 32-32s32 14.327 32 32c0 17.673-14.327 32-32 32s-32-14.327-32-32zM672 224c0-17.673 14.327-32 32-32s32 14.327 32 32c0 17.673-14.327 32-32 32s-32-14.327-32-32zM288 864v-128c0-17.673 14.327-32 32-32s32 14.327 32 32v128c0 17.673-14.327 32-32 32s-32-14.327-32-32zM288 480c0-17.673 14.327-32 32-32s32 14.327 32 32c0 17.673-14.327 32-32 32s-32-14.327-32-32zM288 352c0-17.673 14.327-32 32-32s32 14.327 32 32c0 17.673-14.327 32-32 32s-32-14.327-32-32zM288 224c0-17.673 14.327-32 32-32s32 14.327 32 32c0 17.673-14.327 32-32 32s-32-14.327-32-32zM486.396 480c0-17.673 14.327-32 32-32s32 14.327 32 32c0 17.673-14.327 32-32 32s-32-14.327-32-32zM486.396 352c0-17.673 14.327-32 32-32s32 14.327 32 32c0 17.673-14.327 32-32 32s-32-14.327-32-32zM486.396 224c0-17.673 14.327-32 32-32s32 14.327 32 32c0 17.673-14.327 32-32 32s-32-14.327-32-32z" />
<glyph unicode="&#xe908;" d="M170.667 736h512v-181.333h170.667v-213.333h-298.667v-160h-384v554.667z" />
<glyph unicode="&#xe909;" d="M192 96v704c0 17.673-14.327 32-32 32s-32-14.327-32-32v-704c0-17.673 14.327-32 32-32s32 14.327 32 32z" />
<glyph unicode="&#xe90a;" d="M640 704v-160c0-17.673 14.327-32 32-32s32 14.327 32 32v192c0 17.673-14.327 32-32 32h-512c-17.673 0-32-14.327-32-32s14.327-32 32-32h480z" />
<glyph unicode="&#xe90b;" d="M128 352c0-17.673 14.327-32 32-32h704c17.673 0 32 14.327 32 32v192c0 17.673-14.327 32-32 32h-704c-17.673 0-32-14.327-32-32v-192zM832 384h-640v128h640v-128z" />
<glyph unicode="&#xe90c;" d="M512 192h-352c-17.673 0-32-14.327-32-32s14.327-32 32-32h384c17.673 0 32 14.327 32 32v192c0 17.673-14.327 32-32 32s-32-14.327-32-32v-160z" />
<glyph unicode="&#xe90d;" glyph-name="ChatCircleText-Fill" d="M511.991 864c-72.247 0.006-143.253-18.805-206.022-54.58s-115.139-87.28-151.953-149.445c-36.815-62.164-56.804-132.846-58.001-205.085-1.197-72.235 16.44-143.539 51.174-206.891l-34-119.599c-3.198-11.008-3.401-22.665-0.588-33.775s8.539-21.269 16.588-29.427c8.049-8.085 18.136-13.845 29.193-16.661s22.67-2.59 33.607 0.661l120 34.001c55.612-30.481 117.455-47.842 180.806-50.761 63.347-2.918 126.528 8.687 184.704 33.929 58.176 25.237 109.815 63.445 150.963 111.697 41.152 48.256 70.724 105.276 86.46 166.711 15.735 61.431 17.216 125.649 4.335 187.742-12.885 62.095-39.795 120.422-78.677 170.522-38.878 50.1-88.695 90.649-145.647 118.546s-119.526 42.404-182.942 42.413zM639.991 352h-256.002c-8.487 0-16.626 3.371-22.627 9.374-6.001 5.999-9.373 14.14-9.373 22.626s3.372 16.627 9.373 22.626c6.001 6.003 14.141 9.374 22.627 9.374h256.002c8.486 0 16.623-3.371 22.626-9.374 5.999-5.999 9.374-14.14 9.374-22.626s-3.375-16.627-9.374-22.626c-6.003-6.003-14.14-9.374-22.626-9.374zM639.991 480h-256.002c-8.487 0-16.626 3.371-22.627 9.374-6.001 5.999-9.373 14.14-9.373 22.626s3.372 16.627 9.373 22.627c6.001 6.001 14.141 9.373 22.627 9.373h256.002c8.486 0 16.623-3.372 22.626-9.373 5.999-6 9.374-14.141 9.374-22.627s-3.375-16.627-9.374-22.626c-6.003-6.003-14.14-9.374-22.626-9.374z" />
<glyph unicode="&#xe90e;" glyph-name="Check" d="M214.639 470.613l-0.012 0.013c-6.001 6.003-14.141 9.374-22.627 9.374s-16.626-3.371-22.627-9.374c-6.001-5.999-9.373-14.14-9.373-22.626 0-0.512 0.012-1.024 0.037-1.536 0.382-7.949 3.71-15.467 9.335-21.090l0.012-0.013 223.988-223.987c12.497-12.497 32.758-12.497 45.254 0l448 447.999c6.003 6.001 9.374 14.141 9.374 22.627s-3.371 16.626-9.374 22.627c-5.999 6.001-14.14 9.373-22.626 9.373s-16.627-3.372-22.626-9.373l-425.374-425.371-201.361 201.357z" />
<glyph unicode="&#xe90f;" glyph-name="chevron-down-small" d="M223.053 608.669c12.96 13.329 33.971 13.329 46.931 0l242.016-248.93 242.018 248.93c12.958 13.329 33.971 13.329 46.929 0s12.958-34.942 0-48.272l-265.481-273.067c-12.962-13.329-33.971-13.329-46.933 0l-265.48 273.067c-12.96 13.33-12.96 34.942 0 48.272z" />
<glyph unicode="&#xe910;" glyph-name="chevron-left-small" d="M672.67 736.947c13.329-12.96 13.329-33.971 0-46.931l-248.931-242.016 248.931-242.018c13.329-12.958 13.329-33.971 0-46.929s-34.944-12.958-48.273 0l-273.066 265.481c-13.329 12.962-13.329 33.971 0 46.933l273.066 265.48c13.329 12.96 34.944 12.96 48.273 0z" />
<glyph unicode="&#xe911;" glyph-name="chevron-right-small" d="M351.331 736.947c13.33 12.96 34.942 12.96 48.272 0l273.067-265.48c13.329-12.962 13.329-33.971 0-46.933l-273.067-265.481c-13.33-12.958-34.942-12.958-48.272 0s-13.329 33.971 0 46.929l248.93 242.018-248.93 242.016c-13.329 12.96-13.329 33.971 0 46.931z" />
<glyph unicode="&#xe912;" glyph-name="chevrons-left-small" d="M483.644 737.275c13.077-12.776 13.372-33.785 0.657-46.926l-234.531-242.349 234.531-242.351c12.715-13.137 12.42-34.15-0.657-46.925-13.082-12.774-33.993-12.48-46.711 0.661l-256.917 265.481c-12.464 12.881-12.464 33.387 0 46.268l256.917 265.48c12.719 13.141 33.63 13.437 46.711 0.661zM843.328 737.275c13.077-12.776 13.376-33.785 0.657-46.926l-234.53-242.349 234.53-242.351c12.719-13.137 12.42-34.15-0.657-46.925-13.082-12.774-33.993-12.48-46.711 0.661l-256.917 265.481c-12.463 12.881-12.463 33.387 0 46.268l256.917 265.48c12.719 13.141 33.63 13.437 46.711 0.661z" />
<glyph unicode="&#xe913;" glyph-name="chevrons-right-small" d="M180.673 737.275c13.080 12.776 33.993 12.48 46.71-0.661l256.918-265.48c12.463-12.881 12.463-33.387 0-46.268l-256.918-265.481c-12.717-13.141-33.63-13.436-46.71-0.661s-13.375 33.788-0.658 46.925l234.531 242.351-234.531 242.349c-12.717 13.141-12.422 34.15 0.658 46.926zM540.356 737.275c13.082 12.776 33.993 12.48 46.711-0.661l256.917-265.48c12.463-12.881 12.463-33.387 0-46.268l-256.917-265.481c-12.719-13.141-33.63-13.436-46.711-0.661-13.077 12.774-13.372 33.788-0.657 46.925l234.53 242.351-234.53 242.349c-12.715 13.141-12.42 34.15 0.657 46.926z" />
<glyph unicode="&#xe914;" glyph-name="chevron-up-small" d="M488.533 608.669c12.962 13.329 33.971 13.329 46.933 0l265.481-273.066c12.958-13.329 12.958-34.944 0-48.273s-33.971-13.329-46.929 0l-242.018 248.931-242.016-248.931c-12.96-13.329-33.971-13.329-46.931 0s-12.96 34.944 0 48.273l265.48 273.066z" />
<glyph unicode="&#xe915;" glyph-name="Clockwise" d="M928.811 561.201v192c0 17.673-14.327 32-32 32s-32-14.327-32-32v-160h-160c-17.673 0-32-14.327-32-32s14.327-32.002 32-32.002h192c17.673 0 32 14.328 32 32.002zM874.214 538.535c5.999-5.982 14.127-9.336 22.596-9.336l0.047-0.004c8.486 0.013 16.619 3.396 22.613 9.407 5.978 5.998 9.34 14.128 9.34 22.599l-0.004 0.042c-0.009 8.487-3.392 16.621-9.404 22.613l-136 135.6c-53.918 53.995-124.467 83.249-124.467 83.249-70.554 29.253-146.927 29.253-146.927 29.253-76.378 0-146.927-29.253-146.927-29.253-70.551-29.254-124.517-83.299-124.517-83.299-5.991-6-9.356-14.132-9.356-22.611 0.006-8.487 3.383-16.647 9.389-22.644 6-5.991 14.132-9.356 22.611-9.356 8.487 0.006 16.647 3.383 22.644 9.389 44.963 45.028 103.743 69.401 103.743 69.401 58.781 24.372 122.414 24.372 122.414 24.372 63.633 0 122.415-24.372 122.415-24.372 58.778-24.373 103.791-69.451 103.791-69.451l136-135.6zM95.209 334.793v-192c0-17.673 14.327-32 32-32s32 14.327 32 32v160h160c17.673 0 32 14.327 32 32 0 17.677-14.327 32-32 32h-192c-17.673 0-32-14.323-32-32zM285.802 221.854l-136 135.603c-5.998 5.978-14.124 9.335-22.594 9.335h-0.047c-8.487-0.013-16.621-3.396-22.614-9.404-5.981-5.999-9.339-14.123-9.339-22.596v-0.047c0.012-8.486 3.396-16.619 9.406-22.613l136-135.599c53.916-53.995 124.467-83.247 124.467-83.247 70.549-29.257 146.927-29.257 146.927-29.257 76.373 0 146.927 29.257 146.927 29.257 70.549 29.252 124.518 83.298 124.518 83.298 5.99 5.999 9.353 14.131 9.353 22.609-0.004 8.486-3.383 16.649-9.387 22.643-5.999 5.99-14.131 9.357-22.613 9.357-8.486-0.004-16.644-3.383-22.643-9.387-44.962-45.030-103.74-69.402-103.74-69.402-58.782-24.375-122.415-24.375-122.415-24.375-63.633 0-122.414 24.375-122.414 24.375-58.78 24.371-103.793 69.449-103.793 69.449z" />
<glyph unicode="&#xe916;" glyph-name="close-small" d="M224.188 735.812c14.473 14.473 37.939 14.473 52.412 0l235.4-235.4 235.401 235.4c14.473 14.473 37.939 14.473 52.412 0s14.473-37.939 0-52.412l-235.401-235.4 235.401-235.401c14.473-14.473 14.473-37.939 0-52.412s-37.939-14.473-52.412 0l-235.401 235.401-235.4-235.401c-14.473-14.473-37.939-14.473-52.412 0s-14.473 37.939 0 52.412l235.4 235.401-235.4 235.4c-14.473 14.473-14.473 37.939 0 52.412z" />
<glyph unicode="&#xe917;" glyph-name="credit-card" d="M819.2 789.333h-614.4c-65.882-0.242-119.225-53.584-119.467-119.443v-443.756c0.242-65.882 53.584-119.225 119.443-119.467h614.423c65.882 0.242 119.225 53.584 119.467 119.443v443.756c-0.242 65.882-53.584 119.225-119.443 119.467h-0.023zM853.333 226.133c0-18.851-15.282-34.133-34.133-34.133v0h-614.4c-18.851 0-34.133 15.282-34.133 34.133v0 264.533h682.667zM853.333 576h-682.667v93.867c0 18.851 15.282 34.133 34.133 34.133v0h614.4c18.851 0 34.133-15.282 34.133-34.133v0z" />
<glyph unicode="&#xe918;" d="M96 223.996v91.601c0 230.001 184.797 419.599 414.4 420.399 54.763 0.211 109.030-10.394 159.684-31.203 50.658-20.813 96.704-51.422 135.509-90.074 38.797-38.648 69.577-84.577 90.586-135.158 21.009-50.573 31.821-104.798 31.821-159.565v-96c0-8.482-3.375-16.623-9.374-22.626-6.003-6.003-14.14-9.374-22.626-9.374h-768c-8.484 0-16.625 3.371-22.625 9.374s-9.375 14.144-9.375 22.626z" />
<glyph unicode="&#xe919;" d="M82.745 178.743c0 0-18.745 18.748-18.745 45.257v91.601c0 0 0 91.191 34.929 174.925 0 0 33.78 80.976 95.343 143.648 0 0 61.726 62.839 141.801 97.51 0 0 83.14 35.998 174.216 36.316 0 0 89.323 0.343 171.959-33.606 0 0 82.633-33.95 145.929-96.999 0 0 63.292-63.049 97.557-145.554 0 0 34.266-82.505 34.266-171.84v-96c0 0 0-26.509-18.743-45.257 0 0-18.748-18.743-45.257-18.743h-768c0 0-26.51 0-45.255 18.743zM128 224h768v96c0 0 0 76.574-29.372 147.294 0 0-29.372 70.717-83.622 124.759 0 0-54.251 54.042-125.077 83.142 0 0-70.831 29.1-147.418 28.806 0 0-77.931-0.272-149.009-31.047 0 0-68.605-29.705-121.574-83.628 0 0-52.908-53.862-81.933-123.44 0 0-29.996-71.906-29.996-150.285v-91.601z" />
<glyph unicode="&#xe91a;" d="M480 736v-128c0-17.673 14.327-32 32-32s32 14.327 32 32v128c0 17.673-14.327 32-32 32s-32-14.327-32-32z" />
<glyph unicode="&#xe91b;" d="M101.729 396.693l123.995-33.199c2.7-0.725 5.482-1.092 8.276-1.092 0.338 0 0.676 0.009 1.015 0.017 5.273 0.166 10.422 1.638 14.991 4.275 7.349 4.245 12.711 11.234 14.906 19.435 0.723 2.697 1.088 5.483 1.089 8.273l-0.005 0.55c-0.244 14.281-9.923 26.671-23.719 30.362l-0.011 0.004-123.984 33.195c-2.705 0.725-5.487 1.092-8.282 1.092l-0.549-0.004c-14.28-0.247-26.668-9.924-30.362-23.723-0.723-2.697-1.089-5.478-1.089-8.273l0.005-0.55c0.245-14.281 9.923-26.667 23.724-30.362z" />
<glyph unicode="&#xe91c;" d="M781.726 425.314c-13.995-3.746-23.727-16.422-23.727-30.912v-0.222c0.021-2.722 0.388-5.427 1.088-8.051 2.197-8.201 7.561-15.189 14.908-19.435 4.864-2.812 10.385-4.292 16.004-4.292l0.572 0.009c2.603 0.047 5.193 0.41 7.706 1.084l123.998 33.199c13.995 3.746 23.727 16.427 23.727 30.912v0.222c-0.021 2.722-0.388 5.427-1.088 8.051-2.197 8.201-7.561 15.189-14.908 19.435-4.864 2.812-10.385 4.292-16.004 4.292l-0.572-0.004c-2.603-0.047-5.193-0.414-7.706-1.084l-123.998-33.203z" />
<glyph unicode="&#xe91d;" d="M438.989 172.51l273.6 356.399c4.288 5.591 6.613 12.44 6.613 19.487v0.314c-0.013 1.289-0.102 2.577-0.269 3.856-1.109 8.414-5.513 16.045-12.241 21.213-5.594 4.291-12.442 6.617-19.486 6.617l-0.875-0.012c-9.634-0.262-18.641-4.855-24.512-12.502l-273.599-356.4c-4.291-5.589-6.617-12.437-6.617-19.486l0.012-0.87c0.262-9.638 4.855-18.641 12.502-24.512 5.589-4.292 12.439-6.618 19.486-6.618h0.314c1.289 0.013 2.577 0.107 3.856 0.273 8.415 1.105 16.044 5.508 21.215 12.241z" />
<glyph unicode="&#xe91e;" glyph-name="dot-fill" d="M384 661.333h256c47.128 0 85.333-38.205 85.333-85.333v-256c0-47.128-38.205-85.333-85.333-85.333h-256c-47.128 0-85.333 38.205-85.333 85.333v256c0 47.128 38.205 85.333 85.333 85.333z" />
<glyph unicode="&#xe91f;" glyph-name="down-2-circle" d="M512 851.845c-223.037 0-403.845-180.808-403.845-403.845s180.808-403.844 403.845-403.844c223.036 0 403.844 180.809 403.844 403.844 0 223.037-180.809 403.845-403.844 403.845zM42.667 448c0 259.206 210.128 469.333 469.333 469.333 259.204 0 469.333-210.128 469.333-469.333 0-259.204-210.129-469.333-469.333-469.333-259.206 0-469.333 210.129-469.333 469.333zM357.87 514.812c12.787 12.787 33.52 12.787 46.307 0l107.823-107.823 107.823 107.823c12.787 12.787 33.519 12.787 46.306 0s12.787-33.519 0-46.306l-130.974-130.978c-12.787-12.787-33.523-12.787-46.31 0l-130.975 130.978c-12.788 12.787-12.788 33.519 0 46.306z" />
<glyph unicode="&#xe920;" glyph-name="download" d="M512 874.667c18.125 0 32.819-14.694 32.819-32.82v-472.123l140.898 140.894c12.817 12.817 33.596 12.817 46.413 0s12.817-33.6 0-46.417l-196.924-196.915c-12.817-12.817-33.596-12.817-46.413 0l-196.924 196.915c-12.817 12.817-12.817 33.6 0 46.417s33.598 12.817 46.415 0l140.896-140.894v472.123c0 18.126 14.694 32.82 32.819 32.82zM118.154 244.51c18.127 0 32.82-14.694 32.82-32.823v-78.767c0-22.029 21.352-45.948 54.701-45.948h612.65c33.348 0 54.699 23.919 54.699 45.948v78.767c0 18.129 14.694 32.823 32.823 32.823 18.125 0 32.819-14.694 32.819-32.823v-78.767c0-64.614-57.417-111.586-120.341-111.586h-612.65c-62.925 0-120.342 46.972-120.342 111.586v78.767c0 18.129 14.694 32.823 32.82 32.823z" />
<glyph unicode="&#xe921;" glyph-name="down-small" d="M843.657 471.356c12.902-12.898 12.902-33.813 0-46.711l-308.301-308.301c-12.898-12.902-33.813-12.902-46.711 0l-308.303 308.301c-12.9 12.898-12.9 33.813 0 46.711 12.9 12.902 33.815 12.902 46.714 0l251.911-251.908v536.854c0 18.243 14.788 33.032 33.033 33.032s33.033-14.789 33.033-33.032v-536.854l251.913 251.908c12.898 12.902 33.813 12.902 46.711 0z" />
<glyph unicode="&#xe922;" glyph-name="down-up-sort-fill" d="M478.827 105.054c17.075-21.129 49.284-21.129 66.364 0l169.301 209.459c22.554 27.9 2.697 69.487-33.182 69.487h-338.607c-35.876 0-55.735-41.587-33.183-69.487l169.306-209.459zM478.827 790.947c17.075 21.127 49.284 21.127 66.364 0l169.301-209.46c22.554-27.901 2.697-69.488-33.182-69.488h-338.607c-35.876 0-55.735 41.586-33.183 69.488l169.306 209.46z" />
<glyph unicode="&#xe923;" d="M478.827 105.054c17.075-21.129 49.284-21.129 66.364 0l169.301 209.459c22.554 27.9 2.697 69.487-33.182 69.487h-338.607c-35.876 0-55.735-41.587-33.183-69.487l169.306-209.459z" />
<glyph unicode="&#xe924;" d="M478.827 790.947c17.075 21.127 49.284 21.127 66.364 0l169.301-209.46c22.554-27.901 2.697-69.488-33.182-69.488h-338.607c-35.876 0-55.735 41.586-33.183 69.488l169.306 209.46z" />
<glyph unicode="&#xe925;" d="M478.818 105.054c17.075-21.129 49.289-21.129 66.364 0l169.306 209.459c22.554 27.9 2.692 69.487-33.182 69.487h-338.61c-35.876 0-55.735-41.587-33.182-69.487l169.305-209.459z" />
<glyph unicode="&#xe926;" d="M478.818 790.947c17.075 21.127 49.289 21.127 66.364 0l169.306-209.46c22.554-27.901 2.692-69.488-33.182-69.488h-338.61c-35.876 0-55.735 41.586-33.182 69.488l169.305 209.46z" />
<glyph unicode="&#xe927;" glyph-name="enter-button" d="M310.906 404.46c4.055 4.172 6.341 9.838 6.341 15.735 0 5.9-2.28 11.557-6.334 15.728l-0.185 0.19c-4.037 4.047-9.465 6.324-15.099 6.324-0.649 0-1.297-0.029-1.943-0.090-5.042-0.468-9.765-2.74-13.344-6.424l-129.713-133.454c-4.054-4.169-6.332-9.828-6.332-15.726 0-5.9 2.278-11.557 6.332-15.728l129.713-133.454c4.052-4.172 9.552-6.515 15.287-6.515 5.732 0 11.232 2.343 15.284 6.515 4.055 4.172 6.334 9.828 6.334 15.728 0 5.898-2.28 11.557-6.334 15.728l-114.424 117.726 114.417 117.716zM825.229 557.358v207.595h92.238c25.559 0 45.161-7.019 58.804-21.056 11.53-11.863 17.293-27.877 17.293-48.043 0-31.831-14.412-53.283-43.237-64.354l49.291-74.141h-51.885l-43.813 66.43h-34.302v-66.43h-44.39zM869.62 664.121h44.966c10.762 0 19.12 2.669 25.078 8.007 5.956 5.536 8.936 12.851 8.936 21.946 0 9.688-3.074 17.003-9.223 21.946-6.151 5.14-14.702 7.711-25.656 7.711h-44.1v-59.609zM632.125 557.358v207.595h152.196v-40.629h-108.093v-42.112h95.12v-40.629h-95.12v-43.595h109.534v-40.629h-153.637zM492.198 557.358v165.483h-61.396v42.112h167.183v-42.112h-61.396v-165.483h-44.39zM217.485 557.358v207.595h40.931l94.547-127.819v127.819h43.813v-207.595h-37.761l-97.716 131.971v-131.971h-43.813zM24.381 557.358v207.595h152.195v-40.629h-108.093v-42.112h95.122v-40.629h-95.122v-43.595h109.535v-40.629h-153.637zM792.856 308.975h-598.116c-11.94 0-21.619-9.96-21.619-22.243s9.679-22.243 21.619-22.243h619.735c11.939 0 21.619 9.96 21.619 22.243v189.072c0 12.283-9.679 22.24-21.619 22.24s-21.619-9.957-21.619-22.24v-166.829zM814.475 498.044h-158.537c-11.939 0-21.619-9.957-21.619-22.24 0-12.286 9.679-22.243 21.619-22.243h158.537c11.939 0 21.619 9.957 21.619 22.243 0 12.283-9.679 22.24-21.619 22.24z" />
<glyph unicode="&#xe928;" glyph-name="exchange-5" d="M928.794 561.21v192c0 17.673-14.323 32-32 32-17.673 0-32-14.327-32-32v-160h-160c-17.673 0-32-14.327-32-32s14.327-31.999 32-31.999h192c17.677 0 32 14.326 32 31.999zM874.202 538.548c5.999-5.983 14.123-9.336 22.592-9.336l0.047-0.004c8.486 0.013 16.623 3.396 22.613 9.407 5.982 5.999 9.34 14.125 9.34 22.596v0.045c-0.013 8.487-3.396 16.622-9.404 22.614l-136 135.6c-82.308 82.374-196.57 105.137-196.57 105.137-114.261 22.764-221.907-21.799-221.907-21.799-107.647-44.563-172.384-141.428-172.384-141.428-64.737-96.865-64.737-213.372-64.737-213.372 0-116.506 64.737-213.372 64.737-213.372 64.737-96.866 172.384-141.427 172.384-141.427 107.645-44.565 221.907-21.798 221.907-21.798 114.253 22.763 196.595 105.165 196.595 105.165 5.999 5.999 9.378 14.148 9.378 22.635-0.004 8.486-3.375 16.636-9.382 22.635-5.999 5.995-14.135 9.365-22.618 9.365-8.486-0.004-16.636-3.379-22.635-9.382-68.625-68.681-163.844-87.65-163.844-87.65-95.215-18.974-184.921 18.163-184.921 18.163-89.706 37.137-143.654 117.858-143.654 117.858-53.948 80.721-53.948 177.809-53.948 177.809 0 97.089 53.948 177.81 53.948 177.81 53.948 80.721 143.654 117.857 143.654 117.857 89.706 37.136 184.921 18.166 184.921 18.166 95.219-18.97 163.887-87.693 163.887-87.693l136-135.6z" />
<glyph unicode="&#xe929;" glyph-name="eye-2-hide-left" d="M512 198.4c27.226 0 46.144 0.439 60.651 6.242 16.405 6.562 35.029-1.417 41.596-17.826 6.562-16.41-1.421-35.034-17.83-41.596-27.145-10.859-58.125-10.837-81.796-10.825-0.883 0-1.758 0.004-2.62 0.004-134.32 0-238.17 76.514-306.444 148.672-34.434 36.395-60.788 72.666-78.539 99.814-8.895 13.602-15.681 24.998-20.289 33.075-2.305 4.041-4.068 7.258-5.281 9.519-0.606 1.126-1.075 2.018-1.405 2.65l-0.392 0.755-0.157 0.307c0 0-0.026 0.051 28.507 14.541l-28.533-14.49c-4.813 9.481-4.603 20.736 0.56 30.029 22.17 39.906 49.018 80.268 80.691 116.465 11.638 13.3 31.854 14.648 45.155 3.010s14.648-31.854 3.010-45.155c-24.169-27.622-45.586-58.482-64.158-90.086 3.922-6.72 9.223-15.45 15.859-25.596 16.25-24.853 40.296-57.916 71.462-90.854 62.926-66.505 151.075-128.657 259.955-128.657zM740.506 213.513c-12.693-9.707-30.596-8.563-41.95 2.675l-127.095 125.798c-5.329 2.377-10.074 6.246-13.551 11.46-0.947 1.417-1.762 2.884-2.453 4.382l-132.168 130.82c-2.303 1.348-4.473 3.012-6.449 4.988-1.895 1.894-3.503 3.968-4.823 6.165l-131.594 130.253c-6.524 6.458-9.961 15.407-9.437 24.571s4.96 17.663 12.177 23.334c65.288 51.297 144.762 79.371 228.837 79.371 134.319 0 238.17-76.514 306.445-148.674 34.432-36.393 60.787-72.667 78.537-99.815 8.896-13.602 15.684-24.994 20.292-33.075 2.304-4.041 4.066-7.258 5.278-9.519 0.606-1.126 1.075-2.018 1.408-2.65l0.393-0.755 0.154-0.307c0 0 0.030-0.051-28.506-14.537l28.535 14.485c4.693-9.254 4.617-20.207-0.218-29.393-44.693-84.919-107.371-161.126-183.812-219.58zM859.494 447.846c-3.942 6.771-9.318 15.633-16.077 25.971-16.252 24.853-40.294 57.916-71.462 90.854-62.925 66.507-151.074 128.66-259.955 128.66-57.126 0-111.601-15.614-159.268-44.8l89.888-88.969c4.105 2.849 8.119 5.522 11.802 7.974 0.482 0.321 0.956 0.639 1.429 0.953 2.364 1.577 4.932 2.833 7.629 3.732 0.277 0.092 0.555 0.184 0.832 0.277 12.723 4.244 29.67 9.898 51.955 9.898 0.555 0 1.152 0.003 1.796 0.005 11.004 0.046 34.453 0.145 54.754-11.519 16.627-6.274 32.064-16.911 42.876-27.725 2.432-2.432 4.459-5.24 5.995-8.317 1.033-2.060 2.044-3.834 3.43-6.275 1.178-2.061 2.62-4.595 4.574-8.179 3.465-6.349 7.753-14.733 10.799-23.872 0.094-0.273 0.183-0.55 0.277-0.832 4.245-12.723 9.899-29.666 9.899-51.951 0-18.074-5.615-39.1-10.176-52.787-0.478-1.438-1.058-2.837-1.737-4.194-1.937-3.878-4.57-8.521-7.945-13.461l92.463-91.52c54.639 46.251 100.864 103.125 136.222 166.076zM582.707 420.902c2.398 8.828 3.959 17.323 3.959 22.831 0 11.358-2.628 19.759-6.891 32.546-1.22 3.665-3.332 8.077-6.268 13.461-1.135 2.078-2.24 4.032-3.418 6.114-0.337 0.593-0.678 1.199-1.028 1.822-0.542 0.96-1.118 1.988-1.707 3.046-5.303 4.476-12.292 8.7-18.543 10.782-2.697 0.9-5.265 2.155-7.629 3.733-1.003 0.67-3.324 1.732-8.111 2.415-4.873 0.695-10.125 0.747-16.806 0.747-9.617 0-17.118-1.886-26.957-5.052l93.397-92.446zM918.626 41.353c-12.497-12.497-32.755-12.497-45.252 0l-768.001 767.999c-12.497 12.497-12.497 32.758 0 45.255s32.758 12.497 45.255 0l767.999-768.002c12.497-12.497 12.497-32.755 0-45.252z" />
<glyph unicode="&#xe92a;" glyph-name="eye-2-show" d="M164.592 448c3.935 6.75 9.28 15.561 15.991 25.822 16.25 24.853 40.296 57.911 71.462 90.852 62.926 66.507 151.076 128.66 259.956 128.66s197.030-62.153 259.955-128.66c31.168-32.94 55.211-65.999 71.462-90.852 6.711-10.261 12.053-19.072 15.991-25.822-3.938-6.75-9.28-15.561-15.991-25.822-16.252-24.853-40.294-57.911-71.462-90.85-62.925-66.509-151.074-128.661-259.955-128.661s-197.030 62.153-259.956 128.661c-31.166 32.939-55.212 65.997-71.462 90.85-6.71 10.261-12.055 19.072-15.991 25.822zM896 448c28.535 14.485 28.523 14.507 28.523 14.507l-0.055 0.107-0.115 0.23-0.393 0.755c-0.333 0.636-0.802 1.523-1.408 2.654-1.212 2.257-2.974 5.474-5.278 9.519-4.608 8.077-11.396 19.469-20.292 33.075-17.749 27.146-44.105 63.419-78.537 99.813-68.275 72.16-172.126 148.674-306.445 148.674s-238.17-76.514-306.444-148.674c-34.434-36.393-60.788-72.667-78.539-99.813-8.895-13.606-15.681-24.998-20.289-33.075-2.305-4.045-4.068-7.262-5.281-9.519-0.606-1.131-1.075-2.018-1.405-2.654l-0.392-0.755-0.157-0.307c0 0-0.026-0.051 28.507-14.537l-28.533 14.485c-4.622-9.105-4.622-19.866 0-28.971l28.533 14.485c-28.533-14.485-28.533-14.485-28.533-14.485l0.066-0.128 0.118-0.23 0.392-0.755c0.33-0.636 0.799-1.523 1.405-2.654 1.213-2.257 2.976-5.474 5.281-9.519 4.608-8.077 11.394-19.469 20.289-33.075 17.75-27.145 44.105-63.42 78.539-99.814 68.274-72.158 172.124-148.672 306.444-148.672 134.319 0 238.17 76.514 306.445 148.672 34.432 36.395 60.787 72.67 78.537 99.814 8.896 13.606 15.684 24.998 20.292 33.075 2.304 4.045 4.066 7.262 5.278 9.519 0.606 1.131 1.075 2.018 1.408 2.654l0.393 0.755 0.154 0.307c0 0 0.030 0.051-28.506 14.537zM896 448l28.535-14.485c4.621 9.105 4.608 19.891-0.013 28.992l-28.523-14.507zM394.667 448c0 64.606 52.727 117.333 117.333 117.333s117.333-52.727 117.333-117.333c0-64.606-52.727-117.333-117.333-117.333s-117.333 52.727-117.333 117.333zM512 501.333c-29.261 0-53.333-24.073-53.333-53.333s24.073-53.333 53.333-53.333c29.261 0 53.333 24.073 53.333 53.333s-24.073 53.333-53.333 53.333z" />
<glyph unicode="&#xe92b;" glyph-name="File" d="M845.257 50.743c0 0-18.748-18.743-45.257-18.743h-576c0 0-26.51 0-45.255 18.743 0 0-18.745 18.748-18.745 45.257v704c0 0 0 26.51 18.745 45.255 0 0 18.745 18.745 45.255 18.745h384c8.486 0 16.627-3.372 22.626-9.373l224-224c6.003-6.001 9.374-14.141 9.374-22.627v-512c0 0 0-26.509-18.743-45.257zM800 96v498.745l-205.257 205.255h-370.743v-704h576zM608 576h224c17.673 0 32 14.327 32 32s-14.327 32-32 32h-192v192c0 17.673-14.327 32-32 32s-32-14.327-32-32v-224c0-17.673 14.327-32 32-32zM416 352h192c17.673 0 32 14.327 32 32s-14.327 32-32 32h-192c-17.673 0-32-14.327-32-32s14.327-32 32-32zM480 480v-192c0-17.673 14.327-32 32-32s32 14.327 32 32v192c0 17.673-14.327 32-32 32s-32-14.327-32-32z" />
<glyph unicode="&#xe92c;" glyph-name="FilePdf" d="M608 576h224c17.673 0 32 14.327 32 32s-14.327 32-32 32h-192v192c0 17.673-14.327 32-32 32s-32-14.327-32-32v-224c0-17.673 14.327-32 32-32zM800 594.745v-146.745c0-17.673 14.327-32 32-32s32 14.327 32 32v160c0 8.487-3.371 16.626-9.374 22.627l-224 224c-5.999 6.001-14.14 9.373-22.626 9.373h-384c-26.51 0-45.255-18.745-45.255-18.745-18.745-18.745-18.745-45.255-18.745-45.255v-352c0-17.673 14.327-32 32-32s32 14.327 32 32v352h370.743l205.257-205.255zM160 96c0-17.673 14.327-32 32-32s32 14.327 32 32v32h32c39.764 0 67.882 28.117 67.882 28.117 28.118 28.117 28.118 67.883 28.118 67.883 0 39.765-28.118 67.883-28.118 67.883-28.118 28.117-67.882 28.117-67.882 28.117h-64c-17.673 0-32-14.327-32-32v-192zM256 192h-32v64h32c0 0 13.255 0 22.627-9.374 0 0 9.373-9.37 9.373-22.626 0 0 0-13.257-9.373-22.626 0 0-9.373-9.374-22.627-9.374zM720 288v-192c0-17.673 14.327-32 32-32s32 14.327 32 32v160h80c17.673 0 32 14.327 32 32s-14.327 32-32 32h-112c-17.673 0-32-14.327-32-32zM848 208h-96c-17.673 0-32-14.327-32-32s14.327-32 32-32h96c17.673 0 32 14.327 32 32s-14.327 32-32 32zM456 64h56c53.018 0 90.509 37.491 90.509 37.491 37.491 37.491 37.491 90.509 37.491 90.509 0 53.018-37.491 90.509-37.491 90.509-37.491 37.491-90.509 37.491-90.509 37.491h-56c-17.673 0-32-14.327-32-32v-192c0-17.673 14.327-32 32-32zM512 128h-24v128h24c0 0 26.509 0 45.257-18.743 0 0 18.743-18.748 18.743-45.257 0 0 0-26.509-18.743-45.257 0 0-18.748-18.743-45.257-18.743z" />
<glyph unicode="&#xe92d;" glyph-name="Files-Fill" d="M854.801 694.799l-160 160c-6.097 5.943-14.289 9.248-22.801 9.2h-320c-16.974 0-33.253-6.743-45.255-18.745s-18.745-28.281-18.745-45.255v-64h-64c-16.974 0-33.253-6.743-45.255-18.745s-18.745-28.281-18.745-45.255v-576c0-16.973 6.743-33.254 18.745-45.257s28.281-18.743 45.255-18.743h448c16.973 0 33.254 6.741 45.257 18.743s18.743 28.284 18.743 45.257v64h64c16.973 0 33.254 6.741 45.257 18.743s18.743 28.284 18.743 45.257v448c0.047 8.513-3.255 16.704-9.199 22.8zM544 192h-192c-8.487 0-16.626 3.371-22.627 9.374-6.001 5.999-9.373 14.14-9.373 22.626s3.372 16.627 9.373 22.626c6.001 6.003 14.141 9.374 22.627 9.374h192c8.486 0 16.627-3.371 22.626-9.374 6.003-5.999 9.374-14.14 9.374-22.626s-3.371-16.627-9.374-22.626c-5.999-6.003-14.14-9.374-22.626-9.374zM544 320h-192c-8.487 0-16.626 3.371-22.627 9.374-6.001 5.999-9.373 14.14-9.373 22.626s3.372 16.627 9.373 22.626c6.001 6.003 14.141 9.374 22.627 9.374h192c8.486 0 16.627-3.371 22.626-9.374 6.003-5.999 9.374-14.14 9.374-22.626s-3.371-16.627-9.374-22.626c-5.999-6.003-14.14-9.374-22.626-9.374zM800 224h-64v320c0.047 8.513-3.255 16.704-9.199 22.8l-160 160c-6.097 5.943-14.289 9.248-22.801 9.2h-192v64h306.799l141.201-141.2v-434.799z" />
<glyph unicode="&#xe92e;" glyph-name="Files" d="M736 224v320c0 8.487-3.371 16.626-9.374 22.627l-160 160c-5.999 6.001-14.14 9.373-22.626 9.373h-320c-26.51 0-45.255-18.745-45.255-18.745-18.745-18.745-18.745-45.255-18.745-45.255v-576c0-26.509 18.745-45.257 18.745-45.257 18.745-18.743 45.255-18.743 45.255-18.743h448c26.509 0 45.257 18.743 45.257 18.743 18.743 18.748 18.743 45.257 18.743 45.257v64h64c26.509 0 45.257 18.743 45.257 18.743 18.743 18.748 18.743 45.257 18.743 45.257v448c0 8.487-3.371 16.626-9.374 22.627l-160 160c-5.999 6.001-14.14 9.373-22.626 9.373h-320c-26.51 0-45.255-18.745-45.255-18.745-18.745-18.745-18.745-45.255-18.745-45.255v-64h64v64h306.743l141.257-141.255v-434.745h-64zM672 530.743v-434.743h-448v576h306.743l141.257-141.257zM544 320h-192c-17.673 0-32 14.327-32 32s14.327 32 32 32h192c17.673 0 32-14.327 32-32s-14.327-32-32-32zM352 192h192c17.673 0 32 14.327 32 32s-14.327 32-32 32h-192c-17.673 0-32-14.327-32-32s14.327-32 32-32z" />
<glyph unicode="&#xe92f;" d="M168.409 768h687.194c6.212-0.004 12.284-1.809 17.476-5.203 5.205-3.391 9.306-8.223 11.806-13.902s3.298-11.965 2.291-18.090c-1.011-6.125-3.785-11.824-7.97-16.406l-262.797-289.199c-5.47-5.854-8.478-13.585-8.401-21.598v-226.402c0.047-5.316-1.25-10.564-3.763-15.245-2.517-4.685-6.178-8.661-10.641-11.554l-128-85.201c-4.796-3.162-10.368-4.971-16.111-5.239-5.739-0.269-11.452 1.015-16.521 3.716-5.082 2.705-9.329 6.72-12.314 11.631-2.984 4.915-4.593 10.543-4.649 16.294v312c0.070 8.013-2.937 15.744-8.406 21.598l-262.797 289.199c-4.187 4.582-6.961 10.281-7.969 16.406s-0.211 12.41 2.289 18.090c2.5 5.679 6.602 10.511 11.805 13.902 5.195 3.395 11.265 5.199 17.476 5.203z" />
<glyph unicode="&#xe930;" d="M168.391 800c-19.024-0.006-34.956-10.403-34.956-10.403-15.932-10.397-23.598-27.808-23.598-27.808-7.666-17.411-4.577-36.182-4.577-36.182 3.089-18.772 15.93-32.808 15.93-32.808l262.763-289.139c0.047 0.009 0.049 0.247 0.049 0.247l-0.002-312.307c0.18-17.89 9.3-32.905 9.3-32.905 9.12-15.014 24.628-23.266 24.628-23.266 15.508-8.256 33.057-7.437 33.057-7.437 17.545 0.819 32.218 10.483 32.218 10.483l128.128 85.286c13.372 8.67 21.094 23.044 21.094 23.044 7.723 14.37 7.573 30.686 7.573 30.686v226.099l262.882 289.287c12.77 13.957 15.859 32.728 15.859 32.728 3.089 18.771-4.578 36.182-4.578 36.182-7.663 17.411-23.595 27.808-23.595 27.808-15.932 10.397-34.957 10.403-34.957 10.403h-687.22zM431.283 446.72l-262.873 289.28 687.107-0.079-262.502-288.876c-17.259-18.47-17.015-43.443-17.015-43.443v-226.483c-0.047-0.021-0.132-0.081-0.132-0.081l-127.868-85.111v311.364c0.243 25.284-16.717 43.43-16.717 43.43z" />
<glyph unicode="&#xe931;" d="M814.788 593.595l103.603-57.597c12.937-57.943 13.069-118.005 0.397-176.002l-104-57.6c-7.142-15.228-15.569-29.811-25.195-43.601l2.001-118.797c-43.908-40.013-95.876-70.153-152.41-88.401l-101.999 61.197c-16.772-1.199-33.617-1.199-50.398 0l-101.602-60.796c-56.703 17.911-108.844 47.94-152.797 88l2 118.4c-9.547 13.973-17.977 28.689-25.203 43.998l-103.594 57.6c-12.734 57.963-12.875 117.982-0.406 176.002l104 57.597c7.141 15.227 15.57 29.812 25.203 43.602l-2 118.801c43.906 40.008 95.867 70.152 152.398 88.399l102-61.199c16.781 1.199 33.626 1.199 50.398 0l101.602 60.801c56.713-17.918 108.843-47.945 152.806-88l-2.001-118.801c9.626-13.789 18.052-28.375 25.195-43.602zM405.32 288.354c31.578-21.099 68.694-32.358 106.672-32.358 50.923 0 99.759 20.228 135.765 56.235 36.002 36.011 56.235 84.847 56.235 135.765 0 37.973-11.264 75.093-32.358 106.67-21.103 31.574-51.089 56.183-86.165 70.715-35.085 14.531-73.694 18.336-110.938 10.926-37.244-7.406-71.453-25.695-98.304-52.547s-45.14-61.062-52.547-98.306c-7.406-37.244-3.609-75.849 10.922-110.933 14.539-35.081 39.149-65.071 70.719-86.165z" />
<glyph unicode="&#xe932;" d="M512 672c0 0 92.783 0 158.391-65.608 0 0 65.609-65.608 65.609-158.392 0 0 0-92.783-65.609-158.391 0 0-65.609-65.609-158.391-65.609 0 0-92.784 0-158.392 65.609 0 0-65.608 65.609-65.608 158.391 0 0 0 92.784 65.608 158.392 0 0 65.608 65.608 158.392 65.608zM512 608c0 0-66.274 0-113.137-46.863 0 0-46.863-46.863-46.863-113.137 0 0 0-66.274 46.863-113.139 0 0 46.863-46.861 113.137-46.861 0 0 66.274 0 113.139 46.861 0 0 46.861 46.865 46.861 113.139 0 0 0 66.274-46.861 113.137 0 0-46.865 46.863-113.139 46.863z" />
<glyph unicode="&#xe933;" d="M823.59 755.457l-1.83-108.728c0 0 9.481-14.561 17.365-30.048l94.818-52.718c7.983-4.439 13.692-12.079 15.68-20.995 0 0 21.18-94.854 0.431-189.804-1.963-8.994-7.706-16.704-15.757-21.163l-95.189-52.719c0 0-7.872-15.475-17.348-30.020l1.83-108.727c0.154-9.19-3.652-18.001-10.445-24.192 0 0-71.748-65.382-164.122-95.202-8.789-2.837-18.377-1.737-26.295 3.017l-93.538 56.119c0 0-17.207-0.768-34.415 0.004l-93.15-55.744c-7.854-4.702-17.345-5.811-26.072-3.055 0 0-92.79 29.316-164.714 94.861-6.793 6.191-10.596 15.002-10.441 24.192l1.832 108.484c0 0-9.427 14.707-17.349 30.281l-94.837 52.727c-8.017 4.459-13.737 12.143-15.705 21.103 0 0-20.815 94.746-0.431 189.589 1.942 9.036 7.697 16.791 15.782 21.269l95.188 52.719c0 0 7.875 15.473 17.352 30.021l-1.83 108.728c-0.155 9.189 3.649 18.001 10.442 24.191 0 0 71.748 65.38 164.123 95.2 8.789 2.837 18.375 1.739 26.295-3.013l93.539-56.123c0 0 17.207 0.77 34.415-0.001l93.15 55.744c7.855 4.7 17.344 5.812 26.074 3.055 0 0 92.787-29.315 164.715-94.862 6.788-6.19 10.594-15.002 10.441-24.19zM757.598 637.734l1.749 104.004c0 0-52.254 44.259-116.762 67.234l-88.96-53.235c-5.632-3.371-12.169-4.928-18.714-4.46 0 0-22.921 1.639-45.837 0-6.558-0.469-13.107 1.095-18.748 4.479l-89.243 53.547c0 0-64.281-23.337-116.447-67.561l1.751-104.007c0.113-6.737-1.903-13.338-5.761-18.863 0 0-12.899-18.467-22.461-38.861-2.861-6.101-7.575-11.144-13.469-14.409l-90.975-50.385c0 0-11.927-67.243 0.326-134.43l90.695-50.423c5.85-3.251 10.533-8.256 13.39-14.31 0 0 9.77-20.706 22.683-39.607 3.737-5.47 5.684-11.968 5.573-18.59l-1.75-103.603c0 0 52.253-44.258 116.764-67.234l88.959 53.235c5.632 3.371 12.169 4.928 18.714 4.459 0 0 22.916-1.638 45.837 0 6.558 0.469 13.103-1.092 18.743-4.476l89.246-53.547c0 0 64.282 23.334 116.446 67.558l-1.749 104.009c-0.115 6.737 1.903 13.338 5.76 18.863 0 0 12.898 18.466 22.464 38.861 2.859 6.101 7.573 11.145 13.466 14.409l91.034 50.415c0 0 12.13 67.213-0.329 134.37l-90.748 50.453c-5.875 3.266-10.573 8.298-13.423 14.383 0 0-9.566 20.394-22.464 38.861-3.857 5.524-5.875 12.125-5.76 18.863z" />
<glyph unicode="&#xe934;" glyph-name="GitBranch" d="M272 352c0 0 59.647 0 101.824-42.176 0 0 42.176-42.176 42.176-101.824 0 0 0-59.648-42.176-101.824 0 0-42.177-42.176-101.824-42.176 0 0-59.647 0-101.823 42.176 0 0-42.177 42.176-42.177 101.824 0 0 0 59.648 42.176 101.824 0 0 42.177 42.176 101.824 42.176zM272 288c0 0-33.137 0-56.569-23.433 0 0-23.431-23.428-23.431-56.567 0 0 0-33.139 23.432-56.567 0 0 23.431-23.433 56.568-23.433 0 0 33.137 0 56.569 23.433 0 0 23.431 23.428 23.431 56.567 0 0 0 33.139-23.431 56.567 0 0-23.432 23.433-56.569 23.433zM752 832c0 0 59.648 0 101.824-42.176 0 0 42.176-42.177 42.176-101.824 0 0 0-59.647-42.176-101.824 0 0-42.176-42.176-101.824-42.176 0 0-59.648 0-101.824 42.176 0 0-42.176 42.177-42.176 101.824 0 0 0 59.647 42.176 101.824 0 0 42.176 42.176 101.824 42.176zM752 768c0 0-33.139 0-56.567-23.432 0 0-23.433-23.431-23.433-56.568 0 0 0-33.137 23.433-56.568 0 0 23.428-23.432 56.567-23.432 0 0 33.139 0 56.567 23.431 0 0 23.433 23.432 23.433 56.569 0 0 0 33.137-23.433 56.569 0 0-23.428 23.431-56.567 23.431zM272 832c0 0 59.647 0 101.824-42.176 0 0 42.176-42.177 42.176-101.824 0 0 0-59.647-42.176-101.824 0 0-42.177-42.176-101.824-42.176 0 0-59.647 0-101.823 42.176 0 0-42.177 42.177-42.177 101.824 0 0 0 59.647 42.176 101.824 0 0 42.177 42.176 101.824 42.176zM272 768c0 0-33.137 0-56.569-23.432 0 0-23.431-23.431-23.431-56.568 0 0 0-33.137 23.432-56.568 0 0 23.431-23.432 56.568-23.432 0 0 33.137 0 56.569 23.431 0 0 23.431 23.432 23.431 56.569 0 0 0 33.137-23.431 56.569 0 0-23.432 23.431-56.569 23.431zM784 544v32c0 17.673-14.327 32-32 32s-32-14.327-32-32v-32c0.055-12.855-4.787-24.614-4.787-24.614-4.843-11.763-13.841-20.757-13.841-20.757-8.994-8.994-20.753-13.837-20.753-13.837-11.763-4.847-24.482-4.791-24.482-4.791h-288.136c-25.386 0.107-48.984-9.609-48.984-9.609-23.598-9.719-41.644-27.763-41.644-27.763-18.045-18.048-27.762-41.643-27.762-41.643-9.717-23.599-9.61-49.118-9.61-49.118v-31.868c0-17.673 14.326-32 31.999-32s32.001 14.327 32.001 32v32.132c-0.053 12.723 4.79 24.482 4.79 24.482 4.843 11.763 13.838 20.757 13.838 20.757 8.994 8.994 20.756 13.837 20.756 13.837 11.762 4.847 24.616 4.791 24.616 4.791h287.867c25.519-0.107 49.118 9.609 49.118 9.609 23.599 9.719 41.643 27.763 41.643 27.763 18.048 18.048 27.763 41.643 27.763 41.643 9.715 23.599 9.609 48.986 9.609 48.986zM240 576l0.001-256c0-17.673 14.326-32 31.999-32s32.001 14.327 32.001 32l-0.001 256c0 17.673-14.327 32-32 32s-32-14.327-32-32z" />
<glyph unicode="&#xe935;" d="M384 688c0-61.856-50.144-112-112-112s-112 50.144-112 112c0 61.856 50.144 112 112 112s112-50.144 112-112z" />
<glyph unicode="&#xe936;" d="M381.875 208c0-61.854-50.145-112-112-112s-112 50.146-112 112c0 61.854 50.144 112 112 112s112-50.146 112-112z" />
<glyph unicode="&#xe937;" d="M864 208c0-61.854-50.146-112-112-112s-112 50.146-112 112c0 61.854 50.146 112 112 112s112-50.146 112-112z" />
<glyph unicode="&#xe938;" d="M272 352c0 0 59.647 0 101.824-42.176 0 0 42.176-42.176 42.176-101.824 0 0 0-59.648-42.176-101.824 0 0-42.177-42.176-101.824-42.176 0 0-59.647 0-101.823 42.176 0 0-42.177 42.176-42.177 101.824 0 0 0 59.648 42.176 101.824 0 0 42.177 42.176 101.824 42.176zM272 288c0 0-33.137 0-56.569-23.433 0 0-23.431-23.433-23.431-56.567 0 0 0-33.135 23.432-56.567 0 0 23.431-23.433 56.568-23.433 0 0 33.137 0 56.569 23.433 0 0 23.431 23.428 23.431 56.567 0 0 0 33.139-23.431 56.567 0 0-23.432 23.433-56.569 23.433z" />
<glyph unicode="&#xe939;" d="M272 832c0 0 59.647 0 101.824-42.176 0 0 42.176-42.177 42.176-101.824 0 0 0-59.647-42.176-101.824 0 0-42.177-42.176-101.824-42.176 0 0-59.647 0-101.823 42.176 0 0-42.177 42.177-42.177 101.824 0 0 0 59.647 42.176 101.824 0 0 42.177 42.176 101.824 42.176zM272 768c0 0-33.137 0-56.569-23.432 0 0-23.431-23.431-23.431-56.568 0 0 0-33.137 23.432-56.568 0 0 23.431-23.432 56.568-23.432 0 0 33.137 0 56.569 23.431 0 0 23.431 23.432 23.431 56.569 0 0 0 33.137-23.431 56.569 0 0-23.432 23.431-56.569 23.431z" />
<glyph unicode="&#xe93a;" d="M752 352c0 0 59.648 0 101.824-42.176 0 0 42.176-42.176 42.176-101.824 0 0 0-59.648-42.176-101.824 0 0-42.176-42.176-101.824-42.176 0 0-59.648 0-101.824 42.176 0 0-42.176 42.176-42.176 101.824 0 0 0 59.648 42.176 101.824 0 0 42.176 42.176 101.824 42.176zM752 288c0 0-33.139 0-56.567-23.433 0 0-23.433-23.433-23.433-56.567 0 0 0-33.135 23.433-56.567 0 0 23.433-23.433 56.567-23.433 0 0 33.139 0 56.567 23.433 0 0 23.433 23.428 23.433 56.567 0 0 0 33.139-23.433 56.567 0 0-23.428 23.433-56.567 23.433z" />
<glyph unicode="&#xe93b;" d="M240 576v-256c0-17.673 14.327-32 32-32s32 14.327 32 32v256c0 17.673-14.327 32-32 32s-32-14.327-32-32z" />
<glyph unicode="&#xe93c;" d="M566.626 790.627c-5.999 6.001-14.14 9.373-22.626 9.373s-16.627-3.372-22.626-9.373c-6.003-6.001-9.374-14.141-9.374-22.627s3.371-16.626 9.374-22.627l151.599-151.6c46.938-46.985 47.027-113.414 47.027-113.414v-160.358c0-17.673 14.327-32 32-32s32 14.327 32 32v160.444c-0.124 92.87-65.771 158.583-65.771 158.583l-151.603 151.6z" />
<glyph unicode="&#xe93d;" d="M576 736h128c17.673 0 32 14.327 32 32s-14.327 32-32 32h-160c-17.673 0-32-14.327-32-32v-160c0-17.673 14.327-32 32-32s32 14.327 32 32v128z" />
<glyph unicode="&#xe93e;" d="M800 576c0-159.057-128.943-288-288-288s-288 128.943-288 288c0 159.058 128.942 288 288 288s288-128.942 288-288z" />
<glyph unicode="&#xe93f;" d="M512 896c0 0 65.084 0 124.57-25.161 0 0 57.429-24.291 101.705-68.565 0 0 44.275-44.274 68.565-101.706 0 0 25.161-59.486 25.161-124.568 0 0 0-65.084-25.161-124.57 0 0-24.29-57.429-68.565-101.705 0 0-44.275-44.275-101.705-68.565 0 0-59.486-25.161-124.57-25.161 0 0-65.084 0-124.568 25.161 0 0-57.432 24.29-101.706 68.565 0 0-44.274 44.275-68.565 101.705 0 0-25.161 59.486-25.161 124.57 0 0 0 65.082 25.161 124.568 0 0 24.291 57.432 68.565 101.706 0 0 44.273 44.274 101.706 68.565 0 0 59.485 25.161 124.568 25.161zM512 832c0 0-106.039 0-181.019-74.981 0 0-74.981-74.981-74.981-181.019 0 0 0-106.039 74.981-181.018 0 0 74.981-74.982 181.019-74.982 0 0 106.039 0 181.018 74.982 0 0 74.982 74.978 74.982 181.018 0 0 0 106.039-74.982 181.019 0 0-74.978 74.981-181.018 74.981z" />
<glyph unicode="&#xe940;" d="M157.443 722.866c29.213 70.527 83.193 124.506 83.193 124.506 6.001 6.001 9.373 14.141 9.373 22.627s-3.372 16.626-9.373 22.627c-6.001 6.001-14.141 9.373-22.627 9.373-0.552 0-1.104-0.014-1.655-0.043-7.904-0.41-15.376-3.733-20.972-9.329-62.981-62.981-97.066-145.27-97.066-145.27-34.085-82.289-34.085-171.357-34.085-171.357 0-89.067 34.085-171.358 34.085-171.358 34.085-82.287 97.066-145.271 97.066-145.271 62.981-62.98 145.27-97.062 145.27-97.062 82.289-34.086 171.358-34.086 171.358-34.086 89.067 0 171.358 34.086 171.358 34.086 82.287 34.082 145.267 97.062 145.267 97.062 6.003 6.003 9.374 14.144 9.374 22.63s-3.371 16.627-9.374 22.626c-5.999 6.003-14.14 9.374-22.626 9.374s-16.627-3.371-22.626-9.374c-53.982-53.978-124.506-83.191-124.506-83.191-70.528-29.214-146.867-29.214-146.867-29.214-76.339 0-146.866 29.214-146.866 29.214-70.527 29.214-124.507 83.191-124.507 83.191-53.979 53.982-83.193 124.506-83.193 124.506-29.213 70.528-29.213 146.867-29.213 146.867 0 76.338 29.213 146.866 29.213 146.866z" />
<glyph unicode="&#xe941;" d="M384 0h256c17.673 0 32 14.327 32 32s-14.327 32-32 32h-256c-17.673 0-32-14.327-32-32s14.327-32 32-32z" />
<glyph unicode="&#xe942;" d="M480 160v-128c0-17.673 14.327-32 32-32s32 14.327 32 32v128c0 17.673-14.327 32-32 32s-32-14.327-32-32z" />
<glyph unicode="&#xe943;" d="M634.411 586.799c-10.611 18.406-13.478 40.273-7.962 60.789 5.513 20.515 18.953 38 37.359 48.609s40.273 13.469 60.787 7.953c20.518-5.508 38.003-18.945 48.61-37.352l80-138.804c42.436-73.515 53.931-160.883 31.945-242.867-21.973-81.993-75.622-151.898-149.146-194.33-73.519-42.436-160.875-53.931-242.867-31.953-81.994 21.986-151.892 75.635-194.33 149.15l-168 291.204c-5.25 9.109-8.664 19.17-10.024 29.598-1.367 10.431-0.664 21.033 2.063 31.189 5.516 20.516 18.953 38 37.359 48.61s40.273 13.469 60.789 7.961c20.515-5.516 38-18.953 48.609-37.359l-64 110.797c-9.562 18.289-11.695 39.555-5.946 59.375 5.75 19.813 18.938 36.649 36.797 46.969 17.867 10.328 39.031 13.352 59.070 8.445 20.039-4.914 37.414-17.375 48.477-34.789l32-55.601c-9.562 18.289-11.687 39.563-5.945 59.375 5.75 19.82 18.938 36.649 36.797 46.969 17.868 10.328 39.030 13.352 59.070 8.445s37.414-17.375 48.486-34.789l120-207.594z" />
<glyph unicode="&#xe944;" d="M606.669 570.81l0.017-0.032c4.25-7.348 11.238-12.707 19.439-14.9 2.697-0.721 5.474-1.086 8.265-1.086 0.346 0 0.687 0.006 1.028 0.017 5.269 0.169 10.419 1.639 14.989 4.279 9.89 5.718 15.983 16.278 15.983 27.704 0 0.5-0.009 1.001-0.034 1.501-0.239 5.109-1.698 10.086-4.258 14.514l-0.009 0.011-119.991 207.589c-0.226 0.389-0.461 0.774-0.7 1.153-24.149 37.99-67.874 48.699-67.874 48.699-43.721 10.709-82.695-11.818-82.695-11.818-38.973-22.528-51.515-65.76-51.515-65.76-12.539-43.223 8.314-83.101 8.314-83.101l0.006-0.013c3.937-7.526 10.697-13.176 18.796-15.712 3.095-0.969 6.319-1.462 9.562-1.462 0.422 0 0.844 0.008 1.265 0.025 4.735 0.188 9.369 1.424 13.567 3.621 10.553 5.52 17.167 16.445 17.167 28.355v0.152c-0.024 5.114-1.274 10.149-3.645 14.68-8.943 17.095-3.567 35.623-3.567 35.623 5.375 18.528 22.078 28.183 22.078 28.183 16.704 9.655 35.439 5.065 35.439 5.065 18.449-4.518 28.766-20.368 28.766-20.368l119.607-206.918z" />
<glyph unicode="&#xe945;" d="M452.271 518.417l0.009-0.021c5.717-9.899 16.282-16 27.716-16 0.495 0 0.986 0.013 1.481 0.034 5.111 0.239 10.086 1.694 14.515 4.25 9.903 5.717 16.004 16.282 16.004 27.716 0 0.494-0.013 0.988-0.034 1.481-0.239 5.109-1.694 10.087-4.254 14.516l-0.009 0.019-135.99 235.581c-0.228 0.395-0.464 0.785-0.709 1.169-24.149 37.989-67.872 48.699-67.872 48.699-43.723 10.71-82.696-11.818-82.696-11.818-38.973-22.528-51.515-65.76-51.515-65.76-12.542-43.233 8.324-83.12 8.324-83.12 0.207-0.396 0.422-0.786 0.645-1.173l64-110.8c5.717-9.898 16.279-15.994 27.71-15.994 0.497 0 0.994 0.012 1.49 0.035 5.109 0.238 10.086 1.698 14.515 4.256 9.898 5.717 15.994 16.279 15.994 27.709 0 0.497-0.012 0.994-0.035 1.491-0.238 5.109-1.697 10.086-4.256 14.515l-0.006 0.011-63.621 110.144c-8.588 16.852-3.295 35.095-3.295 35.095 5.376 18.528 22.078 28.183 22.078 28.183 16.702 9.655 35.441 5.065 35.441 5.065 18.443-4.518 28.76-20.361 28.76-20.361l135.609-234.921z" />
<glyph unicode="&#xe946;" d="M241.89 563.203l88-152.4c5.716-9.899 16.28-16 27.712-16 0.495 0 0.991 0.013 1.486 0.038 5.109 0.235 10.086 1.694 14.516 4.25 9.9 5.717 15.998 16.282 15.998 27.712 0 0.499-0.012 0.994-0.035 1.489-0.238 5.107-1.696 10.086-4.253 14.515l-88 152.399c-23.175 40.208-68.018 52.259-68.018 52.259-44.844 12.051-85.073-11.136-85.073-11.136-40.23-23.188-52.282-68.031-52.282-68.031-5.787-21.534-2.893-43.644-2.893-43.644 2.894-22.11 14.029-41.429 14.029-41.429l168.007-291.213c35.011-60.655 90.564-103.292 90.564-103.292 55.554-42.641 123.194-60.77 123.194-60.77 67.644-18.133 137.075-9.003 137.075-9.003 69.431 9.135 130.082 44.143 130.082 44.143 60.651 35.008 103.287 90.56 103.287 90.56 42.637 55.556 60.77 123.196 60.77 123.196 18.133 67.639 8.998 137.071 8.998 137.071-9.131 69.431-44.139 130.084-44.139 130.084l-79.991 138.783c-23.185 40.23-68.032 52.281-68.032 52.281-44.843 12.051-85.073-11.136-85.073-11.136-40.23-23.187-52.279-68.031-52.279-68.031-12.053-44.843 11.136-85.073 11.136-85.073l25.37-44.144c-16.606-13.696-29.969-31.1-29.969-31.1-23.258-30.293-33.126-67.187-33.126-67.187-9.865-36.898-4.83-74.756-4.83-74.756 5.035-37.858 24.201-70.891 24.201-70.891 5.726-9.869 16.273-15.945 27.678-15.945 0.521 0 1.037 0.013 1.553 0.038 5.111 0.247 10.082 1.719 14.507 4.284 9.869 5.726 15.94 16.273 15.94 27.678 0 0.521-0.009 1.037-0.034 1.553-0.247 5.111-1.719 10.082-4.284 14.507l-0.030 0.047c-12.74 21.982-16.090 47.168-16.090 47.168-3.354 25.212 3.217 49.783 3.217 49.783 6.571 24.572 22.063 44.745 22.063 44.745 15.488 20.177 37.53 32.87 37.53 32.87 15.305 8.811 20.574 28.361 11.776 43.674l-40.021 69.635c-9.95 17.263-4.779 36.504-4.779 36.504 5.171 19.242 22.434 29.191 22.434 29.191 17.263 9.95 36.506 4.779 36.506 4.779 19.238-5.171 29.188-22.434 29.188-22.434l80.013-138.817c28.642-49.626 36.113-106.436 36.113-106.436 7.475-56.811-7.36-112.154-7.36-112.154-14.839-55.347-49.724-100.8-49.724-100.8-34.889-45.453-84.514-74.099-84.514-74.099-49.626-28.642-106.436-36.117-106.436-36.117-56.806-7.471-112.154 7.364-112.154 7.364-55.343 14.835-100.799 49.724-100.799 49.724-45.455 34.884-74.095 84.506-74.095 84.506l-167.993 291.187c-4.778 8.29-6.020 17.779-6.020 17.779-1.242 9.487 1.241 18.727 1.241 18.727 5.171 19.242 22.434 29.192 22.434 29.192 17.263 9.949 36.504 4.779 36.504 4.779 19.242-5.171 29.204-22.456 29.204-22.456z" />
<glyph unicode="&#xe947;" d="M342.569 26.342c-76.58 52.817-122.797 133.555-122.797 133.555-5.701 9.958-16.297 16.102-27.772 16.102-0.456 0-0.911-0.009-1.366-0.030-5.11-0.218-10.093-1.66-14.531-4.198-9.958-5.7-16.102-16.299-16.102-27.772 0-0.457 0.010-0.913 0.029-1.365 0.218-5.111 1.658-10.095 4.199-14.532 53.446-93.363 142.003-154.445 142.003-154.445 5.343-3.686 11.679-5.658 18.169-5.658 0.834 0 1.667 0.034 2.498 0.098 9.611 0.751 18.371 5.798 23.844 13.734 3.685 5.342 5.658 11.678 5.658 18.167 0 0.832-0.032 1.668-0.097 2.496-0.753 9.613-5.798 18.372-13.734 23.846z" />
<glyph unicode="&#xe948;" d="M704.098 803.999c47.117 0.128 87.919-23.446 87.919-23.446 40.802-23.574 64.226-64.461 64.226-64.461 5.7-9.953 16.294-16.093 27.763-16.093 0.461 0 0.922 0.010 1.378 0.030 5.111 0.22 10.091 1.661 14.532 4.204 9.95 5.702 16.090 16.295 16.090 27.766 0 0.459-0.009 0.918-0.030 1.377-0.218 5.109-1.66 10.092-4.203 14.53-32 55.857-87.74 88.062-87.74 88.062-55.731 32.201-120.098 32.031-120.098 32.031h0.073c17.673 0 32-14.327 32-32 0-17.638-14.272-31.951-31.91-32z" />
<glyph unicode="&#xe949;" d="M896 448c0-212.079-171.921-384-384-384s-384 171.921-384 384c0 212.077 171.922 384 384 384s384-171.923 384-384z" />
<glyph unicode="&#xe94a;" d="M512 864c0 0 84.612 0 161.937-32.704 0 0 74.658-31.578 132.22-89.139 0 0 57.562-57.56 89.139-132.221 0 0 32.704-77.324 32.704-161.936 0 0 0-84.612-32.704-161.937 0 0-31.578-74.658-89.139-132.22 0 0-57.562-57.562-132.22-89.139 0 0-77.325-32.704-161.937-32.704 0 0-84.612 0-161.936 32.704 0 0-74.66 31.578-132.221 89.139 0 0-57.561 57.562-89.139 132.22 0 0-32.704 77.325-32.704 161.937 0 0 0 84.612 32.704 161.936 0 0 31.578 74.66 89.139 132.221 0 0 57.56 57.561 132.221 89.139 0 0 77.324 32.704 161.936 32.704zM512 800c0 0-71.637 0-137.004-27.649 0 0-63.163-26.716-111.897-75.45 0 0-48.734-48.734-75.45-111.897 0 0-27.649-65.367-27.649-137.004 0 0 0-71.637 27.649-137.003 0 0 26.716-63.164 75.45-111.898 0 0 48.734-48.734 111.897-75.452 0 0 65.367-27.648 137.004-27.648 0 0 71.637 0 137.003 27.648 0 0 63.164 26.718 111.898 75.452 0 0 48.734 48.734 75.452 111.898 0 0 27.648 65.37 27.648 137.003 0 0 0 71.633-27.648 137.004 0 0-26.718 63.163-75.452 111.897 0 0-48.734 48.734-111.898 75.45 0 0-65.365 27.649-137.003 27.649z" />
<glyph unicode="&#xe94b;" d="M512 224h32c17.673 0 32 14.327 32 32s-14.327 32-32 32v192c0 17.673-14.327 32-32 32h-32c-17.673 0-32-14.327-32-32s14.327-32 32-32v-192c0-17.673 14.327-32 32-32z" />
<glyph unicode="&#xe94c;" d="M552 624c0-26.51-21.491-48-48-48s-48 21.49-48 48c0 26.51 21.491 48 48 48s48-21.49 48-48z" />
<glyph unicode="&#xe94d;" glyph-name="left-small" d="M535.356 779.658c12.902-12.9 12.902-33.815 0-46.714l-251.91-251.911h536.855c18.244 0 33.033-14.788 33.033-33.033s-14.788-33.033-33.033-33.033h-536.855l251.91-251.913c12.902-12.898 12.902-33.813 0-46.711-12.898-12.902-33.813-12.902-46.711 0l-308.303 308.301c-12.9 12.898-12.9 33.813 0 46.711l308.303 308.303c12.898 12.9 33.813 12.9 46.711 0z" />
<glyph unicode="&#xe94f;" glyph-name="location-4" d="M698.357 772.003c-103.083 106.456-269.697 106.456-372.783 0-103.658-107.046-103.658-280.95 0-387.998l188.167-194.315 184.616 194.315c103.657 107.049 103.663 280.951 0 387.998zM278.527 817.56c128.82 133.031 338.057 133.031 466.876 0 128.21-132.402 128.25-346.547 0.108-478.997l-207.808-218.726c-6.145-6.468-14.662-10.149-23.583-10.194-8.921-0.040-17.473 3.561-23.679 9.967l-211.915 218.84c-128.249 132.441-128.249 346.671 0 479.111zM511.966 666.295c-44.261 0-78.586-34.325-78.586-78.586s34.325-78.586 78.586-78.586c40.659 0 78.586 35.165 78.586 78.586s-37.927 78.586-78.586 78.586zM367.891 587.708c0 80.43 63.646 144.075 144.075 144.075 75.122 0 144.077-62.805 144.077-144.075s-68.955-144.074-144.077-144.074c-80.429 0-144.075 63.645-144.075 144.074zM146.432 243.428c5.352 11.594 16.959 19.024 29.73 19.024h61.976c18.084 0 32.744-14.66 32.744-32.745s-14.66-32.745-32.744-32.745h-41.025l-70.526-152.804h770.824l-70.525 152.804h-41.023c-18.085 0-32.745 14.66-32.745 32.745s14.66 32.745 32.745 32.745h61.975c12.772 0 24.377-7.43 29.73-19.024l100.75-218.294c4.682-10.138 3.868-21.965-2.145-31.369-6.019-9.409-16.418-15.098-27.585-15.098h-873.177c-11.166 0-21.563 5.689-27.581 15.098-6.018 9.404-6.828 21.231-2.149 31.369l100.751 218.294z" />
<glyph unicode="&#xe950;" d="M128 149.333v597.333h692.365c8.742 0 17.126-3.258 23.313-9.052 6.182-5.793 9.655-13.653 9.655-21.845v-535.542c0-8.192-3.473-16.051-9.655-21.845-6.187-5.79-14.571-9.050-23.313-9.050h-692.365z" />
<glyph unicode="&#xe951;" d="M308.514 841.846c0 18.126-14.694 32.82-32.821 32.82h-78.769c-61.45 0-111.59-50.141-111.59-111.59v-630.153c0-61.449 50.141-111.59 111.59-111.59h78.769c18.127 0 32.821 14.694 32.821 32.819 0 18.129-14.694 32.823-32.821 32.823h-78.769c-25.197 0-45.949 20.749-45.949 45.948v630.153c0 25.196 20.752 45.949 45.949 45.949h78.769c18.127 0 32.821 14.694 32.821 32.82zM685.713 668.131c-12.817-12.817-12.817-33.598 0-46.415l140.898-140.896h-472.157c-18.126 0-32.82-14.694-32.82-32.819s14.694-32.819 32.82-32.819h472.157l-140.898-140.898c-12.817-12.817-12.817-33.596 0-46.413s33.6-12.817 46.417 0l196.924 196.924c12.817 12.817 12.817 33.596 0 46.413l-196.924 196.924c-12.817 12.817-33.6 12.817-46.417 0z" />
<glyph unicode="&#xe952;" glyph-name="menu-close" d="M242.858 666.385c0 17.242 14.694 31.22 32.821 31.22h630.164c18.129 0 32.823-13.978 32.823-31.22s-14.694-31.22-32.823-31.22h-630.164c-18.127 0-32.821 13.978-32.821 31.22zM94.936 613.532c12.812 12.198 33.593 12.206 46.416 0.020l157.542-149.722c6.158-5.85 9.619-13.79 9.623-22.071 0.004-8.277-3.45-16.222-9.603-22.080l-157.542-149.986c-12.812-12.194-33.593-12.207-46.416-0.017-12.823 12.186-12.832 31.953-0.020 44.151l134.344 127.898-134.323 127.657c-12.823 12.186-12.832 31.953-0.020 44.151zM400.399 448.414c0 17.246 14.695 31.219 32.821 31.219h472.627c18.125 0 32.819-13.973 32.819-31.219 0-17.242-14.694-31.219-32.819-31.219h-472.627c-18.126 0-32.821 13.978-32.821 31.219zM245.537 216.823c0 17.242 14.694 31.219 32.821 31.219h627.49c18.125 0 32.819-13.978 32.819-31.219s-14.694-31.219-32.819-31.219h-627.49c-18.127 0-32.821 13.978-32.821 31.219z" />
<glyph unicode="&#xe953;" glyph-name="menu-open" d="M85.333 666.385c0 17.242 14.694 31.22 32.82 31.22h630.139c18.129 0 32.819-13.978 32.819-31.22s-14.69-31.22-32.819-31.22h-630.139c-18.126 0-32.82 13.978-32.82 31.22zM929.062 613.532c12.813-12.198 12.804-31.965-0.017-44.151l-134.319-127.657 134.336-127.898c12.813-12.198 12.804-31.966-0.017-44.151-12.826-12.19-33.604-12.177-46.417 0.017l-157.534 149.986c-6.153 5.858-9.609 13.803-9.604 22.080 0.004 8.282 3.469 16.222 9.626 22.071l157.534 149.722c12.821 12.186 33.604 12.178 46.413-0.020zM85.333 448.414c0 17.246 14.694 31.219 32.82 31.219h472.605c18.125 0 32.819-13.973 32.819-31.219 0-17.242-14.694-31.219-32.819-31.219h-472.605c-18.126 0-32.82 13.978-32.82 31.219zM88.012 216.823c0 17.242 14.694 31.219 32.82 31.219h627.46c18.129 0 32.823-13.978 32.823-31.219s-14.694-31.219-32.823-31.219h-627.46c-18.126 0-32.82 13.978-32.82 31.219z" />
<glyph unicode="&#xe954;" glyph-name="minus" d="M181.333 448c0 17.673 14.327 32 32 32h597.333c17.673 0 32-14.327 32-32s-14.327-32-32-32h-597.333c-17.673 0-32 14.327-32 32z" />
<glyph unicode="&#xe955;" glyph-name="multiply-circle" d="M512 851.845c-223.037 0-403.845-180.808-403.845-403.845s180.808-403.844 403.845-403.844c223.036 0 403.844 180.809 403.844 403.844 0 223.037-180.809 403.845-403.844 403.845zM42.667 448c0 259.206 210.128 469.333 469.333 469.333 259.204 0 469.333-210.128 469.333-469.333 0-259.204-210.129-469.333-469.333-469.333-259.206 0-469.333 210.129-469.333 469.333zM357.87 602.13c12.787 12.788 33.52 12.788 46.307 0l107.823-107.824 107.823 107.824c12.787 12.788 33.519 12.788 46.306 0s12.787-33.52 0-46.307l-107.823-107.823 107.823-107.823c12.787-12.787 12.787-33.519 0-46.306s-33.519-12.787-46.306 0l-107.823 107.823-107.823-107.823c-12.788-12.787-33.52-12.787-46.307 0s-12.788 33.519 0 46.306l107.824 107.823-107.824 107.823c-12.788 12.788-12.788 33.52 0 46.307z" />
<glyph unicode="&#xe956;" glyph-name="PaperPlaneTilt-Fill" d="M910.797 766.806l-209.6-743.6c-3.494-12.591-10.786-23.799-20.877-32.102s-22.494-13.295-35.524-14.298h-5.598c-12.058 0.026-23.859 3.456-34.048 9.899-10.189 6.438-18.355 15.625-23.552 26.5l-142.801 301.602c-1.404 3.025-1.847 6.413-1.276 9.698 0.572 3.29 2.133 6.323 4.476 8.7l205.201 205.201c3.209 2.911 5.798 6.444 7.603 10.385s2.79 8.208 2.897 12.541c0.107 4.334-0.666 8.644-2.274 12.669-1.613 4.025-4.023 7.681-7.087 10.746s-6.72 5.476-10.748 7.085c-4.023 1.61-8.333 2.385-12.668 2.278s-8.602-1.093-12.54-2.898c-3.942-1.806-7.475-4.393-10.385-7.606l-205.201-205.601c-2.377-2.342-5.412-3.904-8.7-4.476s-6.672-0.124-9.7 1.276l-300 141.999c-11.742 5.547-21.6 14.417-28.354 25.506-6.754 11.091-10.108 23.919-9.646 36.896 0.708 13.361 5.612 26.16 14.015 36.573s19.875 17.911 32.785 21.427l745.201 210c13.035 3.722 26.914 3.21 39.637-1.463s23.633-13.265 31.164-24.538c5.047-8.011 8.337-17.004 9.647-26.383s0.614-18.929-2.048-28.017z" />
<glyph unicode="&#xe957;" glyph-name="Pencil" d="M895.761 562.508l-489.134-489.13c-6.001-6.003-14.141-9.374-22.627-9.374h-192c0 0-26.51 0-45.255 18.743 0 0-18.745 18.748-18.745 45.257v178.799c0 0-0.044 12.557 4.768 24.273 0 0 4.813 11.721 13.748 20.698l480.056 480.057c0 0 8.849 8.987 20.71 13.953 0 0 11.857 4.966 24.717 4.966 0 0 12.86 0 24.717-4.966 0 0 11.861-4.966 20.881-14.127l178.231-178.226c0 0 8.986-8.849 13.952-20.71 0 0 4.966-11.86 4.966-24.718 0 0 0-12.858-4.966-24.718 0 0-4.919-11.747-13.952-20.71l-0.068-0.068zM850.748 608.003l-0.175 0.173-178.573 178.574-0.171-0.174-479.829-479.828v-178.743h178.745l480.003 479.999zM864 128h-480c-17.673 0-32-14.327-32-32s14.327-31.996 32-31.996l480-0.004c17.673 0 32 14.327 32 32s-14.327 32-32 32zM745.357 457.391c5.999-6.003 14.157-9.391 22.643-9.391s16.627 3.371 22.626 9.374c6.003 5.999 9.374 14.14 9.374 22.626s-3.371 16.627-9.374 22.626l-223.996 223.997c-6.003 6.005-14.144 9.376-22.63 9.376s-16.627-3.372-22.626-9.373c-6.003-6.001-9.374-14.141-9.374-22.627s3.371-16.626 9.374-22.627l223.983-223.982z" />
<glyph unicode="&#xe958;" glyph-name="plus" d="M512 789.333c18.244 0 33.033-14.789 33.033-33.032v-275.269h275.268c18.244 0 33.033-14.788 33.033-33.033s-14.788-33.033-33.033-33.033h-275.268v-275.268c0-18.244-14.788-33.033-33.033-33.033s-33.033 14.788-33.033 33.033v275.268h-275.269c-18.243 0-33.032 14.788-33.032 33.033s14.789 33.033 33.032 33.033h275.269v275.269c0 18.243 14.788 33.032 33.033 33.032z" />
<glyph unicode="&#xe959;" glyph-name="qr" d="M153.6 318.326h257.338v-257.341h-257.338v257.341zM102.4 395.126c-14.138 0-25.6-11.464-25.6-25.6v-359.741c0-14.136 11.462-25.6 25.6-25.6h359.738c14.139 0 25.6 11.464 25.6 25.6v359.741c0 14.136-11.461 25.6-25.6 25.6h-359.738zM153.6 832h257.338v-257.338h-257.338v257.338zM102.4 908.8c-14.138 0-25.6-11.462-25.6-25.6v-359.738c0-14.139 11.462-25.6 25.6-25.6h359.738c14.139 0 25.6 11.461 25.6 25.6v359.738c0 14.138-11.461 25.6-25.6 25.6h-359.738zM615.9 832h257.336v-257.338h-257.336v257.338zM564.7 908.8c-14.136 0-25.6-11.462-25.6-25.6v-359.738c0-14.139 11.464-25.6 25.6-25.6h359.736c14.141 0 25.6 11.461 25.6 25.6v359.738c0 14.138-11.459 25.6-25.6 25.6h-359.736zM256.5 754.7c-14.139 0-25.6-11.461-25.6-25.6v-51.534c0-14.138 11.461-25.6 25.6-25.6h51.534c14.138 0 25.6 11.462 25.6 25.6v51.534c0 14.139-11.462 25.6-25.6 25.6h-51.534zM718.828 754.7c-14.141 0-25.6-11.461-25.6-25.6v-51.534c0-14.138 11.459-25.6 25.6-25.6h51.533c14.136 0 25.6 11.462 25.6 25.6v51.534c0 14.139-11.464 25.6-25.6 25.6h-51.533zM256.5 241.024c-14.139 0-25.6-11.459-25.6-25.6v-51.533c0-14.141 11.461-25.6 25.6-25.6h51.534c14.138 0 25.6 11.459 25.6 25.6v51.533c0 14.141-11.462 25.6-25.6 25.6h-51.534zM616.074 343.777c-14.136 0-25.6-11.464-25.6-25.6v-51.538c0-14.136 11.464-25.6 25.6-25.6h51.538c14.136 0 25.6 11.464 25.6 25.6v51.538c0 14.136-11.464 25.6-25.6 25.6h-51.538zM821.55 343.777c-14.136 0-25.6-11.464-25.6-25.6v-51.538c0-14.136 11.464-25.6 25.6-25.6h51.533c14.141 0 25.6 11.464 25.6 25.6v51.538c0 14.136-11.459 25.6-25.6 25.6h-51.533zM718.828 241.024c-14.141 0-25.6-11.459-25.6-25.6v-51.533c0-14.141 11.459-25.6 25.6-25.6h51.533c14.136 0 25.6 11.459 25.6 25.6v51.533c0 14.141-11.464 25.6-25.6 25.6h-51.533zM616.074 138.301c-14.136 0-25.6-11.464-25.6-25.6v-51.538c0-14.136 11.464-25.6 25.6-25.6h51.538c14.136 0 25.6 11.464 25.6 25.6v51.538c0 14.136-11.464 25.6-25.6 25.6h-51.538zM821.55 138.301c-14.136 0-25.6-11.464-25.6-25.6v-51.538c0-14.136 11.464-25.6 25.6-25.6h51.533c14.141 0 25.6 11.464 25.6 25.6v51.538c0 14.136-11.459 25.6-25.6 25.6h-51.533z" />
<glyph unicode="&#xe95a;" glyph-name="right-small" d="M488.644 779.658c12.898 12.9 33.813 12.9 46.711 0l308.301-308.303c12.902-12.898 12.902-33.813 0-46.711l-308.301-308.301c-12.898-12.902-33.813-12.902-46.711 0-12.902 12.898-12.902 33.813 0 46.711l251.908 251.913h-536.854c-18.243 0-33.032 14.788-33.032 33.033s14.789 33.033 33.032 33.033h536.854l-251.908 251.911c-12.902 12.9-12.902 33.815 0 46.714z" />
<glyph unicode="&#xe95b;" glyph-name="rubl-b" d="M582.409 313.259h-497.075v150.857h492.531c40.235 0 72.247 6.234 96.043 18.697 24.226 12.467 41.745 29.658 52.561 51.576 10.816 22.349 16.222 47.707 16.222 76.073 0 27.936-5.837 53.509-17.519 76.718-11.247 23.639-28.77 42.549-52.561 56.733-23.364 14.613-53.214 21.92-89.553 21.92h-171.965v-787.165h-194.677v938.667h365.993c74.411 0 138.005-13.108 190.784-39.326 53.21-26.217 94.093-62.32 122.645-108.308s42.829-98.637 42.829-157.949c0-62.32-14.707-115.828-44.126-160.529-28.988-44.698-70.084-78.865-123.298-102.502-52.779-23.642-115.721-35.46-188.834-35.46zM618.099 260.395v-150.857h-532.766v150.857h532.766z" />
<glyph unicode="&#xe95c;" glyph-name="rubl-r" d="M610.001 346.782h-482.001v101.218h482.001c47.014 0 85.615 7.522 115.81 22.562 30.191 15.044 52.403 36.318 66.637 63.826 14.665 27.507 21.999 59.956 21.999 97.348 0 30.515-6.903 59.741-20.702 87.677-13.372 27.937-35.153 50.93-65.348 68.982-29.76 18.051-69.227 27.077-118.396 27.077h-223.856v-836.806h-124.22v938.667h348.076c71.168 0 131.119-12.249 179.861-36.747 48.738-24.069 85.615-57.592 110.63-100.572 25.451-42.549 38.174-91.546 38.174-146.989 0-60.171-12.723-111.746-38.174-154.724-25.015-42.551-61.892-75.217-110.63-97.993-48.742-22.349-108.693-33.527-179.861-33.527zM602.236 258.462v-101.862h-474.236v101.862h474.236z" />
<glyph unicode="&#xe95d;" d="M810.667 490.667c0-188.523-152.811-341.333-341.333-341.333s-341.333 152.811-341.333 341.333c0 188.521 152.812 341.333 341.333 341.333 188.523 0 341.333-152.812 341.333-341.333z" />
<glyph unicode="&#xe95e;" d="M462.767 874.667c0 0 76.77 0 146.927-29.674 0 0 67.738-28.652 119.962-80.874 0 0 52.224-52.223 80.875-119.962 0 0 29.675-70.158 29.675-146.923 0 0 0-76.77-29.675-146.927 0 0-28.651-67.738-80.875-119.962 0 0-52.224-52.224-119.962-80.875 0 0-70.157-29.675-146.927-29.675 0 0-76.765 0-146.924 29.675 0 0-67.739 28.651-119.962 80.875 0 0-52.222 52.224-80.874 119.962 0 0-29.674 70.157-29.674 146.927 0 0 0 76.765 29.674 146.923 0 0 28.652 67.74 80.874 119.962 0 0 52.223 52.222 119.962 80.874 0 0 70.158 29.674 146.924 29.674zM462.767 809.026c0 0-63.455 0-121.353-24.489 0 0-55.948-23.664-99.117-66.833 0 0-43.17-43.17-66.833-99.117 0 0-24.489-57.898-24.489-121.353 0 0 0-63.458 24.489-121.357 0 0 23.664-55.949 66.833-99.115 0 0 43.17-43.17 99.117-66.837 0 0 57.899-24.486 121.353-24.486 0 0 63.458 0 121.357 24.486 0 0 55.949 23.667 99.115 66.837 0 0 43.17 43.166 66.837 99.115 0 0 24.486 57.899 24.486 121.357 0 0 0 63.454-24.486 121.353 0 0-23.667 55.948-66.837 99.118 0 0-43.166 43.17-99.115 66.833 0 0-57.899 24.489-121.357 24.489z" />
<glyph unicode="&#xe95f;" d="M882.62 30.963c6.157-6.157 14.524-9.63 23.228-9.63s17.050 3.456 23.206 9.613c6.157 6.157 9.613 14.502 9.613 23.206s-3.456 17.054-9.613 23.211l-199.381 199.377c-6.157 6.161-14.507 9.617-23.211 9.617s-17.067-3.443-23.223-9.596c-6.153-6.157-9.596-14.519-9.596-23.223s3.456-17.054 9.613-23.206l199.364-199.369z" />
<glyph unicode="&#xe960;" glyph-name="ShareNetwork" d="M256 608c0 0 66.274 0 113.137-46.863 0 0 46.863-46.863 46.863-113.137 0 0 0-66.274-46.863-113.139 0 0-46.863-46.861-113.137-46.861 0 0-66.274 0-113.137 46.861 0 0-46.863 46.865-46.863 113.139 0 0 0 66.274 46.863 113.137 0 0 46.863 46.863 113.137 46.863zM256 544c0 0-39.764 0-67.882-28.117 0 0-28.118-28.117-28.118-67.883 0 0 0-39.765 28.118-67.883 0 0 28.118-28.117 67.882-28.117 0 0 39.764 0 67.882 28.117 0 0 28.118 28.117 28.118 67.883 0 0 0 39.765-28.118 67.883 0 0-28.118 28.117-67.882 28.117zM704 320c0 0 66.274 0 113.135-46.861 0 0 46.865-46.865 46.865-113.139 0 0 0-66.274-46.865-113.135 0 0-46.861-46.865-113.135-46.865 0 0-66.274 0-113.139 46.865 0 0-46.861 46.861-46.861 113.135 0 0 0 66.274 46.861 113.139 0 0 46.865 46.861 113.139 46.861zM704 256c0 0-39.765 0-67.883-28.117 0 0-28.117-28.117-28.117-67.883 0 0 0-39.765 28.117-67.883 0 0 28.117-28.117 67.883-28.117 0 0 39.765 0 67.883 28.117 0 0 28.117 28.117 28.117 67.883 0 0 0 39.765-28.117 67.883 0 0-28.117 28.117-67.883 28.117zM704 896c0 0 66.274 0 113.135-46.863 0 0 46.865-46.863 46.865-113.137 0 0 0-66.274-46.865-113.137 0 0-46.861-46.863-113.135-46.863 0 0-66.274 0-113.139 46.863 0 0-46.861 46.863-46.861 113.137 0 0 0 66.274 46.861 113.137 0 0 46.865 46.863 113.139 46.863zM704 832c0 0-39.765 0-67.883-28.118 0 0-28.117-28.118-28.117-67.882 0 0 0-39.764 28.117-67.882 0 0 28.117-28.118 67.883-28.118 0 0 39.765 0 67.883 28.118 0 0 28.117 28.118 28.117 67.882 0 0 0 39.764-28.117 67.882 0 0-28.117 28.118-67.883 28.118zM613.7 639.876l0.209 0.137c9.041 5.91 14.49 15.983 14.49 26.784 0 6.134-1.762 12.139-5.077 17.3l-0.137 0.211c-4.599 7.031-11.776 11.972-19.981 13.758l-0.239 0.050c-2.159 0.453-4.361 0.681-6.566 0.681-6.135 0-12.139-1.763-17.297-5.079l-232.791-149.594c-7.14-4.588-12.175-11.832-13.979-20.122-0.486-2.236-0.731-4.518-0.731-6.805l0.014-0.947c0.172-5.807 1.923-11.46 5.065-16.354 5.888-9.161 16.030-14.699 26.921-14.699 0.461 0 0.922 0.009 1.382 0.030 5.659 0.243 11.152 1.988 15.917 5.047l232.801 149.602zM579.085 202.287c5.163-3.319 11.179-5.090 17.314-5.090h0.252c10.803 0.085 20.83 5.615 26.671 14.699 3.315 5.163 5.077 11.166 5.077 17.301v0.252c-0.085 10.799-5.615 20.83-14.699 26.671l-232.801 149.598c-5.16 3.315-11.165 5.082-17.299 5.082l-0.252-0.004c-10.801-0.085-20.83-5.611-26.669-14.699-3.316-5.158-5.079-11.166-5.079-17.297l0.001-0.252c0.085-10.803 5.613-20.83 14.7-26.671l232.785-149.589z" />
<glyph unicode="&#xe961;" d="M160 501.201v234.799c0 8.487 3.375 16.626 9.375 22.627s14.141 9.373 22.625 9.373h640c8.486 0 16.623-3.371 22.626-9.373 5.999-6.001 9.374-14.14 9.374-22.627v-234.799c0-336-285.201-447.202-341.999-466.001-6.455-2.389-13.547-2.389-20.002 0-56.798 18.799-341.999 130.001-341.999 466.001z" />
<glyph unicode="&#xe962;" d="M409.669 40.393c0 0 42.175-22.251 81.817-35.418 0 0 20.514-7.381 41.028-0.004 0 0 39.642 13.171 81.818 35.422 0 0 67.802 35.767 121.638 85.312 0 0 160.030 147.273 160.030 375.497v234.799c0 0 0 26.51-18.743 45.255 0 0-18.748 18.745-45.257 18.745h-640c0 0-26.51 0-45.255-18.745 0 0-18.745-18.745-18.745-45.255v-234.799c0 0 0-228.224 160.031-375.497 0 0 53.837-49.545 121.638-85.312zM584.469 96.998c0 0-37.687-19.883-72.469-31.403 0 0-34.782 11.52-72.469 31.403 0 0-60.445 31.885-108.161 75.797 0 0-139.369 128.26-139.369 328.405v234.799h640v-234.799c0 0 0-200.145-139.371-328.405 0 0-47.714-43.913-108.16-75.797z" />
<glyph unicode="&#xe963;" d="M358.108 455.134c-5.954 5.692-13.873 8.866-22.108 8.866-0.007 0-0.726-0.009-0.726-0.009-8.485-0.192-16.546-3.746-22.409-9.882-5.69-5.956-8.865-13.875-8.865-22.11l0.008-0.725c0.192-8.486 3.748-16.546 9.884-22.409l117.199-112c12.361-11.814 31.825-11.823 44.198-0.021l234.799 224c6.14 5.858 9.702 13.917 9.903 22.402 0.013 0.512 0.013 1.025 0 1.538-0.196 7.953-3.345 15.548-8.836 21.304-6.042 6.33-14.409 9.911-23.155 9.911l-0.905-0.013c-7.91-0.223-15.458-3.371-21.184-8.834l-0.009-0.007-212.685-202.901-95.11 90.889z" />
<glyph unicode="&#xe964;" glyph-name="Star" d="M797.665 519.796l-129.715 15.258c-44.124 5.19-82.401 32.889-101.125 73.178l-55.001 118.351-55.005-118.355c-18.721-40.284-56.991-67.981-101.108-73.176l-129.404-15.237 95.19-87.548c32.874-30.239 47.61-75.423 38.883-119.224l-25.246-126.71 114.433 63.724c38.696 21.55 85.781 21.56 124.488 0.031l114.831-63.862-25.272 126.817c-8.724 43.802 6.011 88.986 38.886 119.224l95.165 87.529zM862.024 589.555c43.479-5.114 60.902-58.898 28.682-88.534l-136.218-125.285c-13.148-12.093-19.046-30.167-15.555-47.688l36.081-181.089c8.53-42.798-36.961-75.96-75.095-54.753l-163.195 90.767c-15.483 8.607-34.316 8.602-49.794-0.015l-162.815-90.665c-38.136-21.238-83.652 11.93-75.122 54.738l36.067 181.018c3.491 17.521-2.403 35.594-15.553 47.688l-136.229 125.297c-32.22 29.634-14.802 83.414 28.673 88.533l184.78 21.758c17.647 2.078 32.954 13.157 40.443 29.271l78.22 168.308c18.355 39.496 74.505 39.496 92.86 0l78.218-168.305c7.491-16.116 22.799-27.195 40.453-29.271l185.098-21.772z" />
<glyph unicode="&#xe965;" glyph-name="Trash" d="M864 768h-704c-17.673 0-32-14.327-32-32s14.327-32 32-32h704c17.673 0 32 14.327 32 32s-14.327 32-32 32zM384 544v-256c0-17.673 14.327-32 32-32s32 14.327 32 32v256c0 17.673-14.327 32-32 32s-32-14.327-32-32zM576 544v-256c0-17.673 14.327-32 32-32s32 14.327 32 32v256c0 17.673-14.327 32-32 32s-32-14.327-32-32zM256 128v608c0 17.673-14.327 32-32 32s-32-14.327-32-32v-608c0-26.509 18.745-45.257 18.745-45.257 18.745-18.743 45.255-18.743 45.255-18.743h512c26.509 0 45.257 18.743 45.257 18.743 18.743 18.748 18.743 45.257 18.743 45.257v608c0 17.673-14.327 32-32 32s-32-14.327-32-32v-608h-512zM348.118 867.882c-28.118-28.118-28.118-67.882-28.118-67.882v-64c0-17.673 14.327-32 32-32s32 14.327 32 32v64c0 13.255 9.373 22.627 9.373 22.627 9.373 9.373 22.627 9.373 22.627 9.373h192c13.257 0 22.626-9.373 22.626-9.373 9.374-9.373 9.374-22.627 9.374-22.627v-64c0-17.673 14.327-32 32-32s32 14.327 32 32v64c0 39.764-28.117 67.882-28.117 67.882-28.117 28.118-67.883 28.118-67.883 28.118h-192c-39.764 0-67.882-28.118-67.882-28.118z" />
<glyph unicode="&#xe966;" glyph-name="Trash-Fill" d="M864 768h-160v32c-0.107 25.428-10.253 49.785-28.233 67.766-17.984 17.981-42.338 28.129-67.767 28.234h-192c-25.428-0.105-49.785-10.253-67.766-28.234s-28.129-42.337-28.234-67.766v-32h-160c-8.487 0-16.626-3.372-22.627-9.373s-9.373-14.141-9.373-22.627c0-8.487 3.372-16.626 9.373-22.627s14.141-9.373 22.627-9.373h32v-576c0-16.973 6.743-33.254 18.745-45.257s28.281-18.743 45.255-18.743h512c16.973 0 33.254 6.741 45.257 18.743s18.743 28.284 18.743 45.257v576h32c8.486 0 16.627 3.372 22.626 9.373 6.003 6.001 9.374 14.141 9.374 22.627s-3.371 16.626-9.374 22.627c-5.999 6.001-14.14 9.373-22.626 9.373zM448 288c0-8.486-3.371-16.627-9.374-22.626-5.999-6.003-14.139-9.374-22.626-9.374s-16.626 3.371-22.627 9.374c-6.001 5.999-9.373 14.14-9.373 22.626v256c0 8.487 3.372 16.626 9.373 22.627s14.141 9.373 22.627 9.373c8.487 0 16.627-3.372 22.626-9.373 6.003-6.001 9.374-14.141 9.374-22.627v-256zM640 288c0-8.486-3.371-16.627-9.374-22.626-5.999-6.003-14.14-9.374-22.626-9.374s-16.627 3.371-22.626 9.374c-6.003 5.999-9.374 14.14-9.374 22.626v256c0 8.487 3.371 16.626 9.374 22.627 5.999 6.001 14.14 9.373 22.626 9.373s16.627-3.372 22.626-9.373c6.003-6.001 9.374-14.141 9.374-22.627v-256zM640 768h-256v32c0 8.487 3.372 16.626 9.373 22.627s14.141 9.373 22.627 9.373h192c8.486 0 16.627-3.372 22.626-9.373 6.003-6.001 9.374-14.141 9.374-22.627v-32z" />
<glyph unicode="&#xe967;" glyph-name="TreeStructure-2" d="M64 528c0 0 0 26.51 18.745 45.255 0 0 18.745 18.745 45.255 18.745h160c0 0 26.51 0 45.255-18.745 0 0 18.745-18.745 18.745-45.255v-160c0 0 0-26.509-18.745-45.257 0 0-18.745-18.743-45.255-18.743h-160c0 0-26.51 0-45.255 18.743 0 0-18.745 18.748-18.745 45.257v160zM128 528v-160h160v160h-160zM608 768c0 0 0 26.51 18.743 45.255 0 0 18.748 18.745 45.257 18.745h192c0 0 26.509 0 45.257-18.745 0 0 18.743-18.745 18.743-45.255v-192c0 0 0-26.51-18.743-45.257 0 0-18.748-18.743-45.257-18.743h-192c0 0-26.509 0-45.257 18.743 0 0-18.743 18.747-18.743 45.257v192zM672 768v-192h192v192h-192zM608 320c0 0 0 26.509 18.743 45.257 0 0 18.748 18.743 45.257 18.743h192c0 0 26.509 0 45.257-18.743 0 0 18.743-18.748 18.743-45.257v-192c0 0 0-26.509-18.743-45.257 0 0-18.748-18.743-45.257-18.743h-192c0 0-26.509 0-45.257 18.743 0 0-18.743 18.748-18.743 45.257v192zM672 320v-192h192v192h-192z" />
<glyph unicode="&#xe968;" glyph-name="TreeStructure" d="M64 528c0 0 0 26.51 18.745 45.255 0 0 18.745 18.745 45.255 18.745h160c0 0 26.51 0 45.255-18.745 0 0 18.745-18.745 18.745-45.255v-160c0 0 0-26.509-18.745-45.257 0 0-18.745-18.743-45.255-18.743h-160c0 0-26.51 0-45.255 18.743 0 0-18.745 18.748-18.745 45.257v160zM128 528v-160h160v160h-160zM608 768c0 0 0 26.51 18.743 45.255 0 0 18.748 18.745 45.257 18.745h192c0 0 26.509 0 45.257-18.745 0 0 18.743-18.745 18.743-45.255v-192c0 0 0-26.51-18.743-45.257 0 0-18.748-18.743-45.257-18.743h-192c0 0-26.509 0-45.257 18.743 0 0-18.743 18.747-18.743 45.257v192zM672 768v-192h192v192h-192zM608 320c0 0 0 26.509 18.743 45.257 0 0 18.748 18.743 45.257 18.743h192c0 0 26.509 0 45.257-18.743 0 0 18.743-18.748 18.743-45.257v-192c0 0 0-26.509-18.743-45.257 0 0-18.748-18.743-45.257-18.743h-192c0 0-26.509 0-45.257 18.743 0 0-18.743 18.748-18.743 45.257v192zM672 320v-192h192v192h-192zM320 416h160c17.673 0 32 14.327 32 32s-14.327 32-32 32h-160c-17.673 0-32-14.327-32-32s14.327-32 32-32zM551.386 635.209c11.759 4.843 24.614 4.789 24.614 4.789h64c17.673 0 32 14.327 32 32s-14.327 32-32 32h-64c-25.387 0.107-48.986-9.61-48.986-9.61-23.595-9.717-41.643-27.762-41.643-27.762-18.044-18.046-27.763-41.644-27.763-41.644-9.715-23.599-9.609-49.118-9.609-49.118v-255.865c-0.107-25.387 9.609-48.986 9.609-48.986 9.719-23.599 27.763-41.643 27.763-41.643 18.048-18.048 41.643-27.763 41.643-27.763 23.599-9.715 49.118-9.609 49.118-9.609h63.868c17.673 0 32 14.327 32 32s-14.327 32-32 32h-64.132c-12.723-0.055-24.482 4.787-24.482 4.787-11.763 4.843-20.757 13.837-20.757 13.837-8.994 8.998-13.837 20.757-13.837 20.757-4.847 11.763-4.791 24.619-4.791 24.619v256.133c-0.055 12.72 4.791 24.482 4.791 24.482 4.843 11.762 13.837 20.756 13.837 20.756 8.994 8.995 20.757 13.838 20.757 13.838z" />
<glyph unicode="&#xe969;" d="M128 560h160c17.672 0 32-14.328 32-32v-160c0-17.673-14.328-32-32-32h-160c-17.672 0-32 14.327-32 32v160c0 17.672 14.328 32 32 32z" />
<glyph unicode="&#xe96a;" d="M672 800h192c17.673 0 32-14.328 32-32v-192c0-17.672-14.327-32-32-32h-192c-17.673 0-32 14.328-32 32v192c0 17.672 14.327 32 32 32z" />
<glyph unicode="&#xe96b;" d="M672 352h192c17.673 0 32-14.327 32-32v-192c0-17.673-14.327-32-32-32h-192c-17.673 0-32 14.327-32 32v192c0 17.673 14.327 32 32 32z" />
<glyph unicode="&#xe96c;" d="M64 528c0 0 0 26.51 18.745 45.255 0 0 18.745 18.745 45.255 18.745h160c0 0 26.51 0 45.255-18.745 0 0 18.745-18.745 18.745-45.255v-160c0 0 0-26.509-18.745-45.257 0 0-18.745-18.743-45.255-18.743h-160c0 0-26.51 0-45.255 18.743 0 0-18.745 18.748-18.745 45.257v160zM128 528v-160h160v160h-160z" />
<glyph unicode="&#xe96d;" d="M608 768c0 0 0 26.51 18.743 45.255 0 0 18.748 18.745 45.257 18.745h192c0 0 26.509 0 45.257-18.745 0 0 18.743-18.745 18.743-45.255v-192c0 0 0-26.51-18.743-45.257 0 0-18.748-18.743-45.257-18.743h-192c0 0-26.509 0-45.257 18.743 0 0-18.743 18.747-18.743 45.257v192zM672 768v-192h192v192h-192z" />
<glyph unicode="&#xe96e;" d="M608 320c0 0 0 26.509 18.743 45.257 0 0 18.748 18.743 45.257 18.743h192c0 0 26.509 0 45.257-18.743 0 0 18.743-18.748 18.743-45.257v-192c0 0 0-26.509-18.743-45.257 0 0-18.748-18.743-45.257-18.743h-192c0 0-26.509 0-45.257 18.743 0 0-18.743 18.748-18.743 45.257v192zM672 320v-192h192v192h-192z" />
<glyph unicode="&#xe96f;" d="M320 416h160c17.673 0 32 14.327 32 32s-14.327 32-32 32h-160c-17.673 0-32-14.327-32-32s14.327-32 32-32z" />
<glyph unicode="&#xe970;" d="M551.386 635.209c11.763 4.843 24.614 4.789 24.614 4.789h64c17.673 0 32 14.327 32 32s-14.327 32-32 32h-64c-25.387 0.107-48.981-9.61-48.981-9.61-23.599-9.717-41.647-27.762-41.647-27.762-18.044-18.046-27.759-41.644-27.759-41.644-9.719-23.599-9.613-49.118-9.613-49.118v-255.865c-0.107-25.387 9.613-48.986 9.613-48.986 9.715-23.599 27.759-41.643 27.759-41.643 18.048-18.048 41.647-27.763 41.647-27.763 23.595-9.715 49.118-9.609 49.118-9.609h63.863c17.673 0 32 14.327 32 32s-14.327 32-32 32h-64.132c-12.719-0.055-24.482 4.787-24.482 4.787-11.763 4.843-20.757 13.837-20.757 13.837-8.994 8.998-13.837 20.757-13.837 20.757-4.843 11.763-4.791 24.619-4.791 24.619v256.133c-0.051 12.72 4.791 24.482 4.791 24.482 4.843 11.762 13.837 20.756 13.837 20.756 8.994 8.995 20.757 13.838 20.757 13.838z" />
<glyph unicode="&#xe971;" glyph-name="triangles" d="M632.432 806.989c-70.405 56.326-170.45 56.326-240.856 0l-40.844-32.675c-5.675-4.54-5.675-13.171 0-17.71l154.189-123.351c4.143-3.314 10.026-3.314 14.168 0l154.186 123.351c5.674 4.54 5.674 13.171 0 17.71l-40.844 32.675zM349.071 860.119c95.256 76.205 230.611 76.205 325.866 0l40.844-32.675c39.722-31.778 39.722-92.193 0-123.971l-154.186-123.351c-28.993-23.193-70.186-23.193-99.179 0l-154.188 123.351c-39.722 31.778-39.722 92.193 0 123.971l40.844 32.675zM203.339 609.212c-4.54 5.675-13.171 5.675-17.71 0l-32.675-40.844c-56.326-70.407-56.326-170.451 0-240.856l32.675-40.844c4.54-5.679 13.171-5.679 17.71 0l123.351 154.186c3.313 4.143 3.314 10.026 0 14.168l-123.351 154.188zM132.499 651.716c31.778 39.722 92.193 39.722 123.971 0l123.351-154.188c23.193-28.992 23.193-70.184 0-99.178l-123.351-154.186c-31.778-39.722-92.193-39.722-123.971 0l-32.675 40.844c-76.205 95.255-76.205 230.609 0 325.865l32.675 40.844zM767.539 651.716c31.777 39.722 92.193 39.722 123.969 0l32.675-40.844c76.204-95.256 76.204-230.609 0-325.865l-32.675-40.844c-31.777-39.722-92.193-39.722-123.969 0l-123.35 154.186c-23.194 28.993-23.194 70.186 0 99.178l123.35 154.188zM838.377 609.212c-4.538 5.675-13.168 5.675-17.711 0l-123.35-154.188c-3.314-4.143-3.314-10.026 0-14.168l123.35-154.186c4.543-5.679 13.172-5.679 17.711 0l32.675 40.844c56.329 70.405 56.325 170.449 0 240.856l-32.675 40.844zM519.089 262.623c-4.143 3.314-10.026 3.314-14.168 0l-154.189-123.35c-5.675-4.538-5.675-13.168 0-17.711l40.844-32.675c70.407-56.325 170.452-56.325 240.856 0l40.844 32.675c5.674 4.543 5.674 13.172 0 17.711l-154.186 123.35zM462.416 315.755c28.993 23.194 70.185 23.194 99.179 0l154.186-123.35c39.722-31.777 39.722-92.193 0-123.969l-40.844-32.675c-95.255-76.204-230.61-76.204-325.866 0l-40.844 32.675c-39.722 31.777-39.722 92.193 0 123.969l154.188 123.35z" />
<glyph unicode="&#xe972;" glyph-name="up-2-circle" d="M512 851.845c-223.037 0-403.845-180.808-403.845-403.845s180.808-403.844 403.845-403.844c223.036 0 403.844 180.809 403.844 403.844 0 223.037-180.809 403.845-403.844 403.845zM42.667 448c0 259.206 210.128 469.333 469.333 469.333 259.204 0 469.333-210.128 469.333-469.333 0-259.204-210.129-469.333-469.333-469.333-259.206 0-469.333 210.129-469.333 469.333zM512 489.011l-107.823-107.823c-12.788-12.787-33.52-12.787-46.307 0s-12.788 33.519 0 46.306l130.975 130.977c12.787 12.787 33.523 12.787 46.31 0l130.974-130.977c12.787-12.787 12.787-33.519 0-46.306s-33.519-12.787-46.306 0l-107.823 107.823z" />
<glyph unicode="&#xe973;" glyph-name="upload" d="M488.794 865.054c12.817 12.817 33.596 12.817 46.413 0l196.924-196.919c12.817-12.817 12.817-33.597 0-46.414s-33.596-12.817-46.413 0l-140.898 140.892v-445.885c0-18.125-14.694-32.819-32.819-32.819s-32.819 14.694-32.819 32.819v445.885l-140.896-140.892c-12.817-12.817-33.598-12.817-46.415 0s-12.817 33.597 0 46.414l196.924 196.919zM118.154 244.51c18.127 0 32.82-14.694 32.82-32.823v-78.767c0-22.029 21.352-45.948 54.701-45.948h612.65c33.348 0 54.699 23.919 54.699 45.948v78.767c0 18.129 14.694 32.823 32.823 32.823 18.125 0 32.819-14.694 32.819-32.823v-78.767c0-64.614-57.417-111.586-120.341-111.586h-612.65c-62.925 0-120.342 46.972-120.342 111.586v78.767c0 18.129 14.694 32.823 32.82 32.823z" />
<glyph unicode="&#xe974;" d="M768 576c0-141.385-114.615-256-256-256-141.383 0-256 114.615-256 256 0 141.383 114.617 256 256 256 141.385 0 256-114.617 256-256z" />
<glyph unicode="&#xe975;" d="M512 864c0 0 58.573 0 112.111-22.646 0 0 51.691-21.863 91.537-61.708 0 0 39.842-39.845 61.705-91.534 0 0 22.647-53.54 22.647-112.113 0 0 0-58.573-22.647-112.111 0 0-21.862-51.691-61.705-91.537 0 0-39.846-39.842-91.537-61.705 0 0-53.538-22.647-112.111-22.647 0 0-58.573 0-112.112 22.647 0 0-51.69 21.862-91.535 61.705 0 0-39.845 39.846-61.708 91.537 0 0-22.646 53.538-22.646 112.111 0 0 0 58.572 22.646 112.113 0 0 21.863 51.689 61.708 91.534 0 0 39.845 39.845 91.535 61.708 0 0 53.539 22.646 112.112 22.646zM512 800c0 0-92.784 0-158.392-65.608 0 0-65.608-65.608-65.608-158.392 0 0 0-92.783 65.608-158.391 0 0 65.608-65.609 158.392-65.609 0 0 92.783 0 158.391 65.609 0 0 65.609 65.609 65.609 158.391 0 0 0 92.784-65.609 158.392 0 0-65.609 65.608-158.391 65.608z" />
<glyph unicode="&#xe976;" d="M720.017 232.299c96.538-55.744 152.269-152.29 152.269-152.29 4.241-7.351 11.23-12.715 19.43-14.912 2.701-0.725 5.487-1.092 8.286-1.092 0.333 0 0.67 0.009 1.003 0.017 5.274 0.166 10.423 1.634 14.993 4.271 9.903 5.717 16.004 16.282 16.004 27.712 0 0.495-0.013 0.99-0.038 1.485-0.235 5.107-1.694 10.086-4.25 14.515-64.303 111.398-175.697 175.718-175.697 175.718-111.39 64.32-240.017 64.32-240.017 64.32-128.628 0-240.019-64.32-240.019-64.32-111.383-64.316-175.685-175.701-175.685-175.701l-0.010-0.017c-2.808-4.864-4.286-10.381-4.286-16l0.005-0.576c0.047-2.603 0.412-5.193 1.086-7.706 2.197-8.201 7.561-15.189 14.912-19.43 4.864-2.807 10.381-4.288 15.997-4.288 0.592 0 1.184 0.017 1.776 0.051 10.784 0.597 20.539 6.601 25.938 15.953 55.73 96.546 152.269 152.29 152.269 152.29 96.54 55.744 208.017 55.744 208.017 55.744 111.475 0 208.017-55.744 208.017-55.744z" />
<glyph unicode="&#xe977;" glyph-name="user-square" d="M42.667 797.271c0 66.308 53.754 120.062 120.062 120.062h698.541c66.308 0 120.064-53.754 120.064-120.062v-698.541c0-66.308-53.751-120.064-120.064-120.064h-698.541c-66.308 0-120.062 53.751-120.062 120.064v698.541zM162.729 851.845c-30.14 0-54.574-24.433-54.574-54.574v-698.541c0-30.144 24.433-54.575 54.574-54.575h698.541c30.144 0 54.575 24.431 54.575 54.575v698.541c0 30.14-24.431 54.574-54.575 54.574h-698.541zM348.279 538.105c0 91.2 72.274 160.934 163.721 160.934 93.257 0 163.721-77.131 163.721-166.508 0-91.2-72.273-160.934-163.721-160.934-93.256 0-163.721 77.133-163.721 166.508zM512 633.551c-56.614 0-98.233-41.735-98.233-95.446 0-55.536 43.427-101.019 98.233-101.019 56.614 0 98.231 41.732 98.231 95.445 0 55.534-43.426 101.019-98.231 101.019zM514.402 240.619c-69.303 0-124.115-22.289-166.029-58.547-41.563-35.955-65.582-85.406-65.582-137.395v-33.267c0-18.082-14.66-32.742-32.744-32.742s-32.745 14.66-32.745 32.742v33.267c0 72.747 33.659 139.721 88.225 186.923 54.216 46.903 124.373 74.509 208.875 74.509 157.666 0 292.297-110.157 292.297-257.276v-37.423c0-18.082-14.66-32.742-32.747-32.742-18.082 0-32.742 14.66-32.742 32.742v37.423c0 102.362-96.081 191.787-226.807 191.787z" />
<glyph unicode="&#xe978;" d="M672 400c0-88.367-71.633-160-160-160s-160 71.633-160 160c0 88.367 71.633 160 160 160s160-71.633 160-160z" />
<glyph unicode="&#xe979;" d="M368 624c0-70.695-57.305-128-128-128s-128 57.305-128 128c0 70.695 57.305 128 128 128s128-57.305 128-128z" />
<glyph unicode="&#xe97a;" d="M912 624c0-70.695-57.306-128-128-128s-128 57.305-128 128c0 70.695 57.306 128 128 128s128-57.305 128-128z" />
<glyph unicode="&#xe97b;" d="M512 592c0 0 79.531 0 135.765-56.236 0 0 56.235-56.234 56.235-135.764 0 0 0-79.531-56.235-135.765 0 0-56.235-56.235-135.765-56.235 0 0-79.531 0-135.764 56.235 0 0-56.236 56.235-56.236 135.765 0 0 0 79.531 56.236 135.764 0 0 56.234 56.236 135.764 56.236zM512 528c0 0-53.018 0-90.51-37.491 0 0-37.49-37.491-37.49-90.509 0 0 0-53.018 37.49-90.509 0 0 37.492-37.491 90.51-37.491 0 0 53.018 0 90.509 37.491 0 0 37.491 37.491 37.491 90.509 0 0 0 53.018-37.491 90.509 0 0-37.491 37.491-90.509 37.491z" />
<glyph unicode="&#xe97c;" d="M950.349 380.855l0.009-0.013c5.082-6.797 12.655-11.298 21.056-12.514 1.515-0.218 3.046-0.329 4.578-0.329h0.055c6.886 0.013 13.585 2.244 19.102 6.366 8.081 6.042 12.843 15.543 12.843 25.634l-0.004 0.367c-0.077 6.78-2.304 13.359-6.366 18.79l-0.026 0.034c-38.464 51.447-95.919 80.179-95.919 80.179-57.476 28.736-121.741 28.629-121.741 28.629h0.055c17.673 0 32-14.327 32-32 0-17.647-14.285-31.962-31.927-32l166.285-83.145z" />
<glyph unicode="&#xe97d;" d="M146.937 442.125c43.913 21.956 93.009 21.875 93.009 21.875h0.053c0.495 0 0.989 0.013 1.484 0.034 7.947 0.367 15.471 3.686 21.106 9.301 6.011 5.99 9.396 14.123 9.411 22.609v0.055c0 1.937-0.176 3.866-0.524 5.769-2.782 15.177-15.995 26.206-31.422 26.231h-0.053c-64.231 0.094-121.684-28.629-121.684-28.629-57.457-28.732-95.92-80.179-95.92-80.179l-0.023-0.030c-4.138-5.538-6.372-12.258-6.372-19.162l0.002-0.337c0.015-1.417 0.124-2.837 0.327-4.241 1.214-8.401 5.716-15.974 12.514-21.056 5.531-4.134 12.252-6.366 19.157-6.366 0.428 0 0.855 0.009 1.283 0.026 9.633 0.388 18.578 5.094 24.349 12.817 29.392 39.326 73.305 61.282 73.305 61.282z" />
<glyph unicode="&#xe97e;" d="M630.874 173.824c54.528-34.052 82.748-91.81 82.748-91.81l0.017-0.038 0.013-0.017c5.363-10.991 16.525-17.958 28.753-17.958l0.875 0.009c4.57 0.128 9.058 1.229 13.167 3.234 10.987 5.367 17.958 16.525 17.958 28.757l-0.013 0.875c-0.124 4.57-1.229 9.058-3.234 13.163l-0.009 0.026c-36.271 74.266-106.372 118.046-106.372 118.046-70.11 43.789-152.772 43.789-152.772 43.789-82.662 0-152.774-43.789-152.774-43.789-70.099-43.78-106.369-118.046-106.369-118.046l-0.011-0.021c-2.136-4.373-3.246-9.178-3.246-14.042l0.003-0.418c0.044-3.401 0.63-6.771 1.736-9.988 2.759-8.026 8.594-14.626 16.22-18.351 4.373-2.133 9.175-3.243 14.041-3.243l0.735 0.009c11.962 0.273 22.77 7.198 28.020 17.95 28.221 57.796 82.774 91.866 82.774 91.866 54.551 34.074 118.871 34.074 118.871 34.074 64.32 0 118.869-34.074 118.869-34.074z" />
<glyph unicode="&#xe97f;" d="M309.841 689.73c19.101-20.331 24.332-47.733 24.332-47.733 1.591-8.336 6.429-15.699 13.449-20.468 5.305-3.604 11.57-5.531 17.983-5.531h0.207c1.944 0.013 3.883 0.202 5.793 0.567 15.087 2.88 26 16.073 26 31.433v0.18c-0.011 1.953-0.201 3.901-0.567 5.82-8.718 45.67-40.553 79.555-40.553 79.555-31.835 33.885-76.873 45.432-76.873 45.432-45.037 11.547-89.249-2.84-89.249-2.84-44.212-14.388-73.828-50.229-73.828-50.229-29.616-35.841-35.412-81.972-35.412-81.972-5.796-46.132 14.033-88.185 14.033-88.185 19.829-42.055 59.108-66.93 59.108-66.93 39.265-24.87 85.74-24.832 85.74-24.832h0.032c8.487 0.009 16.623 3.388 22.618 9.395 5.987 5.999 9.35 14.131 9.35 22.605v0.034c-0.018 17.66-14.339 31.966-32 31.966h-0.032c-27.896-0.026-51.464 14.899-51.464 14.899-23.567 14.927-35.465 40.158-35.465 40.158-11.898 25.232-8.42 52.911-8.42 52.911 3.477 27.679 21.247 49.183 21.247 49.183 17.769 21.505 44.297 30.137 44.297 30.137 26.527 8.633 53.55 1.705 53.55 1.705 27.023-6.928 46.124-27.259 46.124-27.259z" />
<glyph unicode="&#xe980;" d="M835.49 542.895c-23.565-14.925-51.46-14.899-51.46-14.899h-0.034c-0.503 0-1.003-0.013-1.506-0.034l-30.46-33.468c0.375-7.949 3.695-15.471 9.314-21.103 5.995-6.007 14.131-9.387 22.618-9.395h0.034c46.477-0.038 85.739 24.832 85.739 24.832 39.279 24.875 59.11 66.93 59.11 66.93 19.827 42.054 14.033 88.185 14.033 88.185-5.794 46.131-35.413 81.972-35.413 81.972-29.615 35.841-73.826 50.229-73.826 50.229-44.211 14.388-89.25 2.84-89.25 2.84-45.039-11.547-76.873-45.432-76.873-45.432-31.834-33.885-40.55-79.555-40.55-79.555-0.38-1.978-0.567-3.986-0.567-6 0-0.962 0.043-1.923 0.128-2.88 1.284-14.224 11.84-25.874 25.869-28.552 1.98-0.378 3.989-0.567 6.003-0.567 0.96 0 1.92 0.043 2.88 0.13 14.221 1.286 25.873 11.841 28.553 25.87 5.227 27.402 24.329 47.733 24.329 47.733 19.102 20.331 46.123 27.259 46.123 27.259 27.025 6.928 53.551-1.705 53.551-1.705 26.526-8.632 44.297-30.137 44.297-30.137 17.771-21.504 21.248-49.183 21.248-49.183 3.477-27.679-8.422-52.911-8.422-52.911-11.895-25.232-35.465-40.158-35.465-40.158z" />
<glyph unicode="&#xe981;" glyph-name="warning-circle-fill" d="M420.452 908.34c91.036 18.103 185.414 8.811 271.166-26.708 85.756-35.523 159.057-95.697 210.624-172.875 51.571-77.181 79.087-167.927 79.087-260.752-0.239-124.399-49.745-243.657-137.711-331.622s-207.223-137.472-331.622-137.711c-92.825 0-183.571 27.516-260.752 79.087-77.178 51.567-137.352 124.868-172.875 210.624-35.52 85.751-44.811 180.13-26.708 271.166 18.109 91.042 62.821 174.696 128.459 240.333s149.292 110.349 240.333 128.459zM486.204 506.671c-19.443 0-35.209-15.765-35.209-35.209 0.004-19.435 15.77-35.204 35.209-35.204v-211.17c0-19.439 15.765-35.209 35.209-35.209h35.166c19.439 0 35.209 15.77 35.209 35.209-0.009 19.435-15.774 35.17-35.209 35.17v211.204c0 19.435-15.735 35.2-35.166 35.209h-35.209zM512.576 682.673c-29.15-0.008-52.787-23.639-52.791-52.791 0-29.156 23.642-52.784 52.791-52.792 29.158 0 52.834 23.631 52.834 52.792-0.004 29.157-23.676 52.791-52.834 52.791z" />
<glyph unicode="&#xe982;" d="M85.333 832h426.667l277.333-192 128-106.667 21.333-85.333v-64l-64-64h-789.333v512z" />
<glyph unicode="&#xe983;" d="M496.358 784.487c-45.999 15.143-95.654 15.513-209.101 15.513h-201.924c-17.673 0-32 14.327-32 32s14.327 32 32 32h201.924c2.056 0 4.096 0 6.118 0 105.571 0.007 166.093 0.011 222.993-18.723 56.905-18.733 105.587-54.688 190.511-117.408 1.626-1.201 3.264-2.413 4.919-3.635l157.508-116.313c1.673-1.234 2.675-1.975 3.635-2.699 60.881-45.859 96.986-117.405 97.711-193.621 0.013-1.173 0.013-2.385 0.013-4.365v-0.427c0-1.361 0-2.411-0.017-3.354-1.011-63.33-52.109-114.428-115.439-115.443-0.947-0.013-1.997-0.013-3.362-0.013h-766.515c-17.673 0-32 14.327-32 32s14.327 32 32 32h766.263c0.9 0 1.468 0 1.856 0 0.354 0 0.559 0.004 0.734 0.004 0 0 0 0 0 0 28.787 0.465 52.011 23.689 52.471 52.476 0.009 0.363 0.009 0.853 0.009 2.59 0 2.202 0 3.093-0.009 3.921-0.538 56.333-27.226 109.218-72.222 143.112-0.661 0.497-1.378 1.027-3.149 2.334l-157.508 116.314c-91.26 67.392-131.422 96.593-177.421 111.736z" />
<glyph unicode="&#xe984;" d="M186.778 586.383c-4.191 0.269-8.747 0.284-20.683 0.284h-80.761c-17.673 0-32 14.327-32 32s14.327 32 32 32h80.761c0.375 0 0.746 0 1.112 0 10.457 0 17.175 0.001 23.666-0.416 55.461-3.556 107.028-29.731 142.635-72.4 4.167-4.994 8.133-10.418 14.306-18.86l0.983-1.344c1.902-2.601 3.398-4.646 4.808-6.759 11.911-17.854 18.697-38.628 19.62-60.073 0.11-2.534 0.109-5.069 0.109-8.294v-9.591c0-0.196 0-0.388 0-0.589 0.001-3.136 0.002-6.797-0.201-10.022-0.232-3.695-0.817-8.917-2.976-14.622-4.979-13.154-15.365-23.539-28.521-28.518-5.703-2.159-10.928-2.743-14.619-2.978-3.229-0.201-6.89-0.201-10.025-0.201-0.198 0-0.393 0-0.587 0h-231.071c-17.673 0-32 14.327-32 32s14.327 32 32 32h224v1.971c0 4.023-0.007 5.103-0.049 6.093-0.419 9.745-3.504 19.191-8.918 27.307-0.549 0.819-1.181 1.698-3.558 4.945-7.046 9.638-9.747 13.305-12.438 16.529-24.363 29.195-59.646 47.104-97.593 49.537zM309.247 466.193c0 0 0.002 0.030 0.008 0.085l-0.008-0.085z" />
<glyph unicode="&#xe985;" d="M512 821.333c17.673 0 32-14.327 32-32v-85.333c0-98.234 85.577-181.333 195.554-181.333h156.446c17.673 0 32-14.327 32-32s-14.327-32-32-32h-156.446c-141.372 0-259.554 107.925-259.554 245.333v85.333c0 17.673 14.327 32 32 32z" />
<glyph unicode="&#xe986;" d="M53.333 149.333c0 17.673 14.327 32 32 32h853.333c17.673 0 32-14.327 32-32s-14.327-32-32-32h-853.333c-17.673 0-32 14.327-32 32z" />
<glyph unicode="&#xe987;" d="M768 181.333c17.673 0 32-14.327 32-32v-85.333c0-17.673-14.327-32-32-32s-32 14.327-32 32v85.333c0 17.673 14.327 32 32 32z" />
<glyph unicode="&#xe988;" d="M512 181.333c17.673 0 32-14.327 32-32v-85.333c0-17.673-14.327-32-32-32s-32 14.327-32 32v85.333c0 17.673 14.327 32 32 32z" />
<glyph unicode="&#xe989;" d="M256 181.333c17.673 0 32-14.327 32-32v-85.333c0-17.673-14.327-32-32-32s-32 14.327-32 32v85.333c0 17.673 14.327 32 32 32z" />
<glyph unicode="&#xe98a;" d="M256 704c0 70.692 57.308 128 128 128h256c70.694 0 128-57.308 128-128v-256c0-70.694-57.306-128-128-128h-256c-70.692 0-128 57.306-128 128v256z" />
<glyph unicode="&#xe98b;" d="M53.333 320c0 17.673 14.327 32 32 32h853.333c17.673 0 32-14.327 32-32v-256c0-17.673-14.327-32-32-32h-853.333c-17.673 0-32 14.327-32 32v256zM117.333 288v-192h789.333v192h-789.333z" />
<glyph unicode="&#xe98c;" d="M509.658 864h4.685c58.351 0.001 105.382 0.002 142.374-4.972 38.404-5.164 70.737-16.209 96.422-41.891 25.681-25.682 36.727-58.018 41.89-96.422 4.971-36.991 4.971-84.023 4.971-142.374v-4.682c0-58.352 0-105.384-4.971-142.376-5.163-38.404-16.209-70.737-41.89-96.422-25.685-25.681-58.018-36.727-96.422-41.89-36.992-4.971-84.023-4.971-142.374-4.971h-4.685c-58.351 0-105.382 0-142.372 4.971-38.405 5.163-70.74 16.209-96.422 41.89-25.682 25.685-36.728 58.018-41.891 96.422-4.973 36.992-4.972 84.023-4.972 142.375v4.683c-0.001 58.351-0.002 105.383 4.972 142.374 5.164 38.405 16.209 70.74 41.891 96.422s58.018 36.728 96.422 41.891c36.991 4.973 84.021 4.972 142.372 4.972zM375.813 795.599c-31.308-4.209-47.887-11.908-59.695-23.717s-19.508-28.388-23.717-59.695c-4.333-32.228-4.401-74.943-4.401-136.187s0.068-103.957 4.401-136.188c4.209-31.309 11.908-47.885 23.717-59.695s28.388-19.507 59.695-23.718c32.228-4.331 74.943-4.399 136.187-4.399s103.957 0.068 136.188 4.399c31.309 4.211 47.885 11.908 59.695 23.718s19.507 28.386 23.718 59.695c4.331 32.23 4.399 74.944 4.399 136.188s-0.068 103.959-4.399 136.187c-4.211 31.308-11.908 47.887-23.718 59.695s-28.386 19.508-59.695 23.717c-32.23 4.333-74.944 4.401-136.188 4.401s-103.959-0.068-136.187-4.401z" />
<glyph unicode="&#xe98d;" d="M266.667 192c0 17.673 14.327 32 32 32h0.383c17.673 0 32-14.327 32-32s-14.327-32-32-32h-0.383c-17.673 0-32 14.327-32 32zM479.808 192c0 17.673 14.327 32 32 32h0.384c17.673 0 32-14.327 32-32s-14.327-32-32-32h-0.384c-17.673 0-32 14.327-32 32zM692.949 192c0 17.673 14.327 32 32 32h0.384c17.673 0 32-14.327 32-32s-14.327-32-32-32h-0.384c-17.673 0-32 14.327-32 32z" />
<glyph unicode="&#xe98e;" d="M416 704c0 17.673 14.327 32 32 32h128c17.673 0 32-14.327 32-32s-14.327-32-32-32h-128c-17.673 0-32 14.327-32 32z" />
<glyph unicode="&#xe98f;" d="M128 128v608c0 8.484 3.371 16.625 9.373 22.625s14.14 9.375 22.627 9.375h704c8.486 0 16.627-3.375 22.626-9.375 6.003-6 9.374-14.141 9.374-22.625v-608l-128 64-128-64-128 64-128-64-128 64-128-64z" />
<glyph unicode="&#xe990;" d="M304 512h416c17.673 0 32 14.327 32 32s-14.327 32-32 32h-416c-17.673 0-32-14.327-32-32s14.327-32 32-32z" />
<glyph unicode="&#xe991;" d="M304 384h416c17.673 0 32 14.327 32 32s-14.327 32-32 32h-416c-17.673 0-32-14.327-32-32s14.327-32 32-32z" />
<glyph unicode="&#xe992;" d="M142.311 99.379c-7.591-3.797-16.379-4.42-24.43-1.737s-14.707 8.457-18.502 16.047c-2.222 4.442-3.378 9.344-3.378 14.31v608c0 26.51 18.745 45.255 18.745 45.255 18.745 18.745 45.255 18.745 45.255 18.745h704c26.509 0 45.257-18.745 45.257-18.745 18.743-18.745 18.743-45.255 18.743-45.255v-608c0-17.673-14.327-32-32-32-4.966 0-9.869 1.156-14.31 3.379l-113.69 56.845-113.69-56.845c-9.007-4.506-19.614-4.506-28.621 0l-113.69 56.845-113.689-56.845c-9.009-4.506-19.613-4.506-28.622 0l-113.689 56.845-113.689-56.845zM241.689 220.621c9.009 4.506 19.613 4.506 28.622 0l113.689-56.845 113.69 56.845c9.007 4.506 19.614 4.506 28.621 0l113.69-56.845 113.69 56.845c9.007 4.506 19.614 4.506 28.621 0l81.69-40.845v556.224h-704v-556.224l81.689 40.845z" />
<glyph unicode="&#xe993;" d="M576 96v704c0 8.488-3.371 16.625-9.374 22.629-5.999 6-14.14 9.371-22.626 9.371h-384c-8.487 0-16.626-3.371-22.627-9.371-6.001-6.004-9.373-14.141-9.373-22.629v-704z" />
<glyph unicode="&#xe994;" d="M64 64h896c17.673 0 32 14.327 32 32s-14.327 32-32 32h-896c-17.673 0-32-14.327-32-32s14.327-32 32-32z" />
<glyph unicode="&#xe995;" d="M96 800v-704c0-17.673 14.327-32 32-32s32 14.327 32 32v704h384v-704c0-17.673 14.327-32 32-32s32 14.327 32 32v704c0 26.51-18.743 45.255-18.743 45.255-18.748 18.745-45.257 18.745-45.257 18.745h-384c-26.51 0-45.255-18.745-45.255-18.745-18.745-18.745-18.745-45.255-18.745-45.255z" />
<glyph unicode="&#xe996;" d="M864 608h-288c-17.673 0-32-14.327-32-32s14.327-32 32-32h288v-448c0-17.673 14.327-32 32-32s32 14.327 32 32v448c0 26.51-18.743 45.255-18.743 45.255-18.748 18.745-45.257 18.745-45.257 18.745z" />
<glyph unicode="&#xe997;" d="M256 640h128c17.673 0 32 14.327 32 32s-14.327 32-32 32h-128c-17.673 0-32-14.327-32-32s14.327-32 32-32z" />
<glyph unicode="&#xe998;" d="M320 384h128c17.673 0 32 14.327 32 32s-14.327 32-32 32h-128c-17.673 0-32-14.327-32-32s14.327-32 32-32z" />
<glyph unicode="&#xe999;" d="M256 224h128c17.673 0 32 14.327 32 32s-14.327 32-32 32h-128c-17.673 0-32-14.327-32-32s14.327-32 32-32z" />
<glyph unicode="&#xe99a;" d="M672 256c0-17.673 14.327-32 32-32h64c17.673 0 32 14.327 32 32s-14.327 32-32 32h-64c-17.673 0-32-14.327-32-32z" />
<glyph unicode="&#xe99b;" d="M672 416c0-17.673 14.327-32 32-32h64c17.673 0 32 14.327 32 32s-14.327 32-32 32h-64c-17.673 0-32-14.327-32-32z" />
<glyph unicode="&#xe99c;" d="M469.333 576l213.333 149.333 106.667 42.667 149.333-42.667-21.333-106.667-42.667-85.333-490.667-234.667-64-149.333-42.667-21.333-42.667 192-149.333 128 42.667 42.667 192-21.333 149.333 106.667z" />
<glyph unicode="&#xe99d;" d="M250.503 788.71c15.086 8.271 26.298 11.202 36.147 11.287 10.613 0.093 23.28-3.089 41.172-12.908l209.266-114.843c1.058-0.579 2.138-1.174 3.238-1.781 13.35-7.36 30.050-16.565 47.953-21.843 16.951-4.998 34.743 4.693 39.74 21.645 5.001 16.952-4.689 34.745-21.645 39.743-10.974 3.236-21.909 9.239-37.163 17.612l-210.6 115.575c-23.811 13.067-47.405 21.017-72.518 20.799-25.162-0.219-48.221-8.606-70.985-21.773-13.071-7.561-29.909-20.821-33.238-43.049-3.322-22.188 8.799-40.093 19.736-51.889l201.741-214.54c12.107-12.873 32.359-13.495 45.232-1.391 12.877 12.108 13.5 32.36 1.391 45.234l-199.468 212.122z" />
<glyph unicode="&#xe99e;" d="M769.843 491.405c12.19-12.796 11.699-33.050-1.097-45.239-12.062-11.494-13.239-26.035-13.995-59.469l-5.111-225.741c-0.585-25.894-5.321-49.327-17.673-70.148-12.361-20.843-30.502-35.947-52.318-48.457-12.57-7.206-31.991-15.002-52.497-6.993-20.544 8.026-29.764 27.046-34.338 41.796l-90.039 290.406c-5.231 16.883 4.211 34.807 21.090 40.043 16.879 5.231 34.807-4.207 40.043-21.090l88.619-285.828c12.864 8 19.994 15.347 24.397 22.771 4.928 8.311 8.303 19.857 8.734 38.946l5.111 225.745c0.034 1.626 0.064 3.315 0.094 5.065 0.474 27.149 1.186 68.279 33.741 99.29 12.796 12.19 33.050 11.699 45.239-1.097z" />
</font>
</defs>
</svg>
